  0
SECTION
  2
HEADER
  9
$ACADVER
  1
AC1015
  9
$ACADMAINTVER
 70
     6
  9
$DWGCODEPAGE
  3
ANSI_1252
  9
$INSBASE
 10
0.0
 20
0.0
 30
0.0
  9
$EXTMIN
 10
-297.0000000000001
 20
0.0
 30
0.0
  9
$EXTMAX
 10
0.0
 20
210.0000000000001
 30
0.0
  9
$LIMMIN
 10
0.0
 20
0.0
  9
$LIMMAX
 10
12.0
 20
9.0
  9
$ORTHOMODE
 70
     0
  9
$REGENMODE
 70
     1
  9
$FILLMODE
 70
     1
  9
$QTEXTMODE
 70
     0
  9
$MIRRTEXT
 70
     1
  9
$LTSCALE
 40
1.0
  9
$ATTMODE
 70
     1
  9
$TEXTSIZE
 40
0.2
  9
$TRACEWID
 40
0.05
  9
$TEXTSTYLE
  7
Standard
  9
$CLAYER
  8
0
  9
$CELTYPE
  6
ByLayer
  9
$CECOLOR
 62
   256
  9
$CELTSCALE
 40
1.0
  9
$DISPSILH
 70
     0
  9
$DIMSCALE
 40
1.0
  9
$DIMASZ
 40
0.18
  9
$DIMEXO
 40
0.0625
  9
$DIMDLI
 40
0.38
  9
$DIMRND
 40
0.0
  9
$DIMDLE
 40
0.0
  9
$DIMEXE
 40
0.18
  9
$DIMTP
 40
0.0
  9
$DIMTM
 40
0.0
  9
$DIMTXT
 40
0.18
  9
$DIMCEN
 40
0.09
  9
$DIMTSZ
 40
0.0
  9
$DIMTOL
 70
     0
  9
$DIMLIM
 70
     0
  9
$DIMTIH
 70
     1
  9
$DIMTOH
 70
     1
  9
$DIMSE1
 70
     0
  9
$DIMSE2
 70
     0
  9
$DIMTAD
 70
     0
  9
$DIMZIN
 70
     0
  9
$DIMBLK
  1

  9
$DIMASO
 70
     1
  9
$DIMSHO
 70
     1
  9
$DIMPOST
  1

  9
$DIMAPOST
  1

  9
$DIMALT
 70
     0
  9
$DIMALTD
 70
     2
  9
$DIMALTF
 40
25.4
  9
$DIMLFAC
 40
1.0
  9
$DIMTOFL
 70
     0
  9
$DIMTVP
 40
0.0
  9
$DIMTIX
 70
     0
  9
$DIMSOXD
 70
     0
  9
$DIMSAH
 70
     0
  9
$DIMBLK1
  1

  9
$DIMBLK2
  1

  9
$DIMSTYLE
  2
Standard
  9
$DIMCLRD
 70
     0
  9
$DIMCLRE
 70
     0
  9
$DIMCLRT
 70
     0
  9
$DIMTFAC
 40
1.0
  9
$DIMGAP
 40
0.09
  9
$DIMJUST
 70
     0
  9
$DIMSD1
 70
     0
  9
$DIMSD2
 70
     0
  9
$DIMTOLJ
 70
     1
  9
$DIMTZIN
 70
     0
  9
$DIMALTZ
 70
     0
  9
$DIMALTTZ
 70
     0
  9
$DIMUPT
 70
     0
  9
$DIMDEC
 70
     4
  9
$DIMTDEC
 70
     4
  9
$DIMALTU
 70
     2
  9
$DIMALTTD
 70
     2
  9
$DIMTXSTY
  7
Standard
  9
$DIMAUNIT
 70
     0
  9
$DIMADEC
 70
     0
  9
$DIMALTRND
 40
0.0
  9
$DIMAZIN
 70
     0
  9
$DIMDSEP
 70
    46
  9
$DIMATFIT
 70
     3
  9
$DIMFRAC
 70
     0
  9
$DIMLDRBLK
  1

  9
$DIMLUNIT
 70
     2
  9
$DIMLWD
 70
    -2
  9
$DIMLWE
 70
    -2
  9
$DIMTMOVE
 70
     0
  9
$LUNITS
 70
     2
  9
$LUPREC
 70
     4
  9
$SKETCHINC
 40
0.1
  9
$FILLETRAD
 40
0.5
  9
$AUNITS
 70
     0
  9
$AUPREC
 70
     0
  9
$MENU
  1
.
  9
$ELEVATION
 40
0.0
  9
$PELEVATION
 40
0.0
  9
$THICKNESS
 40
0.0
  9
$LIMCHECK
 70
     0
  9
$CHAMFERA
 40
0.0
  9
$CHAMFERB
 40
0.0
  9
$CHAMFERC
 40
0.0
  9
$CHAMFERD
 40
0.0
  9
$SKPOLY
 70
     0
  9
$TDCREATE
 40
2457590.555571921
  9
$TDUCREATE
 40
2457590.472238588
  9
$TDUPDATE
 40
2457590.555572107
  9
$TDUUPDATE
 40
2457590.472238773
  9
$TDINDWG
 40
0.0000000116
  9
$TDUSRTIMER
 40
0.0000000116
  9
$USRTIMER
 70
     1
  9
$ANGBASE
 50
0.0
  9
$ANGDIR
 70
     0
  9
$PDMODE
 70
     0
  9
$PDSIZE
 40
0.0
  9
$PLINEWID
 40
0.0
  9
$SPLFRAME
 70
     0
  9
$SPLINETYPE
 70
     6
  9
$SPLINESEGS
 70
     8
  9
$HANDSEED
  5
339
  9
$SURFTAB1
 70
     6
  9
$SURFTAB2
 70
     6
  9
$SURFTYPE
 70
     6
  9
$SURFU
 70
     6
  9
$SURFV
 70
     6
  9
$UCSBASE
  2

  9
$UCSNAME
  2

  9
$UCSORG
 10
0.0
 20
0.0
 30
0.0
  9
$UCSXDIR
 10
1.0
 20
0.0
 30
0.0
  9
$UCSYDIR
 10
0.0
 20
1.0
 30
0.0
  9
$UCSORTHOREF
  2

  9
$UCSORTHOVIEW
 70
     0
  9
$UCSORGTOP
 10
0.0
 20
0.0
 30
0.0
  9
$UCSORGBOTTOM
 10
0.0
 20
0.0
 30
0.0
  9
$UCSORGLEFT
 10
0.0
 20
0.0
 30
0.0
  9
$UCSORGRIGHT
 10
0.0
 20
0.0
 30
0.0
  9
$UCSORGFRONT
 10
0.0
 20
0.0
 30
0.0
  9
$UCSORGBACK
 10
0.0
 20
0.0
 30
0.0
  9
$PUCSBASE
  2

  9
$PUCSNAME
  2

  9
$PUCSORG
 10
0.0
 20
0.0
 30
0.0
  9
$PUCSXDIR
 10
1.0
 20
0.0
 30
0.0
  9
$PUCSYDIR
 10
0.0
 20
1.0
 30
0.0
  9
$PUCSORTHOREF
  2

  9
$PUCSORTHOVIEW
 70
     0
  9
$PUCSORGTOP
 10
0.0
 20
0.0
 30
0.0
  9
$PUCSORGBOTTOM
 10
0.0
 20
0.0
 30
0.0
  9
$PUCSORGLEFT
 10
0.0
 20
0.0
 30
0.0
  9
$PUCSORGRIGHT
 10
0.0
 20
0.0
 30
0.0
  9
$PUCSORGFRONT
 10
0.0
 20
0.0
 30
0.0
  9
$PUCSORGBACK
 10
0.0
 20
0.0
 30
0.0
  9
$USERI1
 70
     0
  9
$USERI2
 70
     0
  9
$USERI3
 70
     0
  9
$USERI4
 70
     0
  9
$USERI5
 70
     0
  9
$USERR1
 40
19.0
  9
$USERR2
 40
0.0
  9
$USERR3
 40
0.0
  9
$USERR4
 40
0.0
  9
$USERR5
 40
0.0
  9
$WORLDVIEW
 70
     1
  9
$SHADEDGE
 70
     3
  9
$SHADEDIF
 70
    70
  9
$TILEMODE
 70
     1
  9
$MAXACTVP
 70
    64
  9
$PINSBASE
 10
0.0
 20
0.0
 30
0.0
  9
$PLIMCHECK
 70
     0
  9
$PEXTMIN
 10
1.00000000000000E+20
 20
1.00000000000000E+20
 30
1.00000000000000E+20
  9
$PEXTMAX
 10
-1.00000000000000E+20
 20
-1.00000000000000E+20
 30
-1.00000000000000E+20
  9
$PLIMMIN
 10
0.0
 20
0.0
  9
$PLIMMAX
 10
12.0
 20
9.0
  9
$UNITMODE
 70
     0
  9
$VISRETAIN
 70
     1
  9
$PLINEGEN
 70
     0
  9
$PSLTSCALE
 70
     1
  9
$TREEDEPTH
 70
  3020
  9
$CMLSTYLE
  2
Standard
  9
$CMLJUST
 70
     0
  9
$CMLSCALE
 40
1.0
  9
$PROXYGRAPHICS
 70
     1
  9
$MEASUREMENT
 70
     1
  9
$CELWEIGHT
370
    -1
  9
$ENDCAPS
280
     0
  9
$JOINSTYLE
280
     0
  9
$LWDISPLAY
290
     0
  9
$INSUNITS
 70
     4
  9
$HYPERLINKBASE
  1

  9
$STYLESHEET
  1

  9
$XEDIT
290
     1
  9
$CEPSNTYPE
380
     0
  9
$PSTYLEMODE
290
     1
  9
$FINGERPRINTGUID
  2
{537F668C-D941-4762-9FBD-C11A0D0D60B1}
  9
$VERSIONGUID
  2
{FAEB1C32-E019-11D5-929B-00C0DF256EC4}
  9
$EXTNAMES
290
     1
  9
$PSVPSCALE
 40
0.0
  9
$OLESTARTUP
290
     0
  0
ENDSEC
  0
SECTION
  2
CLASSES
  0
CLASS
  1
ACDBDICTIONARYWDFLT
  2
AcDbDictionaryWithDefault
  3
ObjectDBX Classes
 90
        0
280
     0
281
     0
  0
CLASS
  1
VISUALSTYLE
  2
AcDbVisualStyle
  3
ObjectDBX Classes
 90
     4095
280
     0
281
     0
  0
CLASS
  1
MATERIAL
  2
AcDbMaterial
  3
ObjectDBX Classes
 90
     1153
280
     0
281
     0
  0
CLASS
  1
SCALE
  2
AcDbScale
  3
ObjectDBX Classes
 90
     1153
280
     0
281
     0
  0
CLASS
  1
SUN
  2
AcDbSun
  3
SCENEOE
 90
     1153
280
     0
281
     0
  0
CLASS
  1
DICTIONARYVAR
  2
AcDbDictionaryVar
  3
ObjectDBX Classes
 90
        0
280
     0
281
     0
  0
CLASS
  1
ACDBPLACEHOLDER
  2
AcDbPlaceHolder
  3
ObjectDBX Classes
 90
        0
280
     0
281
     0
  0
CLASS
  1
LAYOUT
  2
AcDbLayout
  3
ObjectDBX Classes
 90
        0
280
     0
281
     0
  0
ENDSEC
  0
SECTION
  2
TABLES
  0
TABLE
  2
VPORT
  5
8
330
0
100
AcDbSymbolTable
 70
     1
  0
VPORT
  5
29
330
8
100
AcDbSymbolTableRecord
100
AcDbViewportTableRecord
  2
*Active
 70
     0
 10
0.0
 20
0.0
 11
1.0
 21
1.0
 12
-148.5000000000001
 22
105.0000000000001
 13
0.0
 23
0.0
 14
0.5
 24
0.5
 15
0.5
 25
0.5
 16
0.0
 26
0.0
 36
1.0
 17
0.0
 27
0.0
 37
0.0
 40
231.0000000000001
 41
1.60267857142857
 42
50.0
 43
0.0
 44
0.0
 50
0.0
 51
0.0
 71
     0
 72
   100
 73
     1
 74
     3
 75
     0
 76
     0
 77
     0
 78
     0
281
     0
 65
     1
110
0.0
120
0.0
130
0.0
111
1.0
121
0.0
131
0.0
112
0.0
122
1.0
132
0.0
 79
     0
146
0.0
  0
ENDTAB
  0
TABLE
  2
LTYPE
  5
5
330
0
100
AcDbSymbolTable
 70
     8
  0
LTYPE
  5
14
330
5
100
AcDbSymbolTableRecord
100
AcDbLinetypeTableRecord
  2
ByBlock
 70
     0
  3

 72
    65
 73
     0
 40
0.0
  0
LTYPE
  5
15
330
5
100
AcDbSymbolTableRecord
100
AcDbLinetypeTableRecord
  2
ByLayer
 70
     0
  3

 72
    65
 73
     0
 40
0.0
  0
LTYPE
  5
16
330
5
100
AcDbSymbolTableRecord
100
AcDbLinetypeTableRecord
  2
Continuous
 70
     0
  3
Solid line
 72
    65
 73
     0
 40
0.0
  0
LTYPE
  5
6A
330
5
100
AcDbSymbolTableRecord
100
AcDbLinetypeTableRecord
  2
DASHED
 70
     0
  3
Dashed
 72
    65
 73
     2
 40
15.0
 49
7.0
 74
     0
 49
-8.0
 74
     0
  0
LTYPE
  5
6B
330
5
100
AcDbSymbolTableRecord
100
AcDbLinetypeTableRecord
  2
DOTTED
 70
     0
  3
Dotted
 72
    65
 73
     2
 40
1.0
 49
0.0
 74
     0
 49
-1.0
 74
     0
  0
LTYPE
  5
6C
330
5
100
AcDbSymbolTableRecord
100
AcDbLinetypeTableRecord
  2
DOT_CENTER
 70
     0
  3
Dot_Center
 72
    65
 73
     4
 40
14.0
 49
12.0
 74
     0
 49
-1.0
 74
     0
 49
0.0
 74
     0
 49
-1.0
 74
     0
  0
LTYPE
  5
6D
330
5
100
AcDbSymbolTableRecord
100
AcDbLinetypeTableRecord
  2
LONG_DASHED
 70
     0
  3
Long_Dashed
 72
    65
 73
     2
 40
15.0
 49
10.0
 74
     0
 49
-5.0
 74
     0
  0
LTYPE
  5
6E
330
5
100
AcDbSymbolTableRecord
100
AcDbLinetypeTableRecord
  2
DASH_CENTER
 70
     0
  3
Dash_Center
 72
    65
 73
     4
 40
14.0
 49
11.0
 74
     0
 49
-1.0
 74
     0
 49
1.0
 74
     0
 49
-1.0
 74
     0
  0
LTYPE
  5
6F
330
5
100
AcDbSymbolTableRecord
100
AcDbLinetypeTableRecord
  2
PHANTOM
 70
     0
  3
Phantom
 72
    65
 73
     6
 40
13.0
 49
10.0
 74
     0
 49
-1.0
 74
     0
 49
0.0
 74
     0
 49
-1.0
 74
     0
 49
0.0
 74
     0
 49
-1.0
 74
     0
  0
LTYPE
  5
70
330
5
100
AcDbSymbolTableRecord
100
AcDbLinetypeTableRecord
  2
CENTER_DASH_DASH
 70
     0
  3
Center_Dash_Dash
 72
    65
 73
     6
 40
14.0
 49
9.0
 74
     0
 49
-1.0
 74
     0
 49
1.0
 74
     0
 49
-1.0
 74
     0
 49
1.0
 74
     0
 49
-1.0
 74
     0
  0
ENDTAB
  0
TABLE
  2
LAYER
  5
2
330
0
100
AcDbSymbolTable
 70
     2
  0
LAYER
  5
10
330
2
100
AcDbSymbolTableRecord
100
AcDbLayerTableRecord
  2
0
 70
     0
 62
     7
  6
Continuous
370
    -3
390
F
  0
LAYER
  5
71
330
2
100
AcDbSymbolTableRecord
100
AcDbLayerTableRecord
  2
1
 70
     0
 62
     7
  6
Continuous
370
    -3
390
F
  0
ENDTAB
  0
TABLE
  2
STYLE
  5
3
330
0
100
AcDbSymbolTable
 70
     4
  0
STYLE
  5
11
330
3
100
AcDbSymbolTableRecord
100
AcDbTextStyleTableRecord
  2
Standard
 70
     0
 40
0.0
 41
1.0
 50
0.0
 71
     0
 42
0.2
  3
txt
  4

  0
STYLE
  5
243
330
3
100
AcDbSymbolTableRecord
100
AcDbTextStyleTableRecord
  2
CONVERTER_11
 70
     0
 40
0.0
 41
0.95
 50
0.0
 71
     0
 42
0.2
  3
simplex.shx
  4

  0
STYLE
  5
2EB
330
3
100
AcDbSymbolTableRecord
100
AcDbTextStyleTableRecord
  2
CONVERTER_12
 70
     0
 40
0.0
 41
1.2
 50
0.0
 71
     0
 42
0.2
  3
ARIAL.TTF
  4

  0
STYLE
  5
2F0
330
3
100
AcDbSymbolTableRecord
100
AcDbTextStyleTableRecord
  2
CONVERTER_13
 70
     0
 40
0.0
 41
1.38
 50
0.0
 71
     0
 42
0.2
  3
ARIAL.TTF
  4

  0
ENDTAB
  0
TABLE
  2
VIEW
  5
6
330
0
100
AcDbSymbolTable
 70
     0
  0
ENDTAB
  0
TABLE
  2
UCS
  5
7
330
0
100
AcDbSymbolTable
 70
     0
  0
ENDTAB
  0
TABLE
  2
APPID
  5
9
330
0
100
AcDbSymbolTable
 70
     1
  0
APPID
  5
12
330
9
100
AcDbSymbolTableRecord
100
AcDbRegAppTableRecord
  2
ACAD
 70
     0
  0
ENDTAB
  0
TABLE
  2
DIMSTYLE
  5
A
330
0
100
AcDbSymbolTable
 70
     9
100
AcDbDimStyleTable
  0
DIMSTYLE
105
27
330
A
100
AcDbSymbolTableRecord
100
AcDbDimStyleTableRecord
  2
Standard
 70
     0
178
     0
340
11
  0
DIMSTYLE
105
24E
102
{ACAD_REACTORS
330
24F
102
}
330
A
100
AcDbSymbolTableRecord
100
AcDbDimStyleTableRecord
  2
ME10_DIM_10
 70
     0
 41
3.0
 42
0.5
 44
1.0
 73
     0
 74
     0
 77
     1
 78
     8
140
3.0
147
2.0
172
     1
173
     1
174
     1
175
     1
176
     7
177
     7
271
     2
178
     7
271
     2
340
243
  0
DIMSTYLE
105
259
102
{ACAD_REACTORS
330
25A
102
}
330
A
100
AcDbSymbolTableRecord
100
AcDbDimStyleTableRecord
  2
ME10_DIM_11
 70
     0
 41
3.0
 42
0.5
 44
1.0
 73
     0
 74
     0
 77
     1
 78
     8
140
3.0
147
2.0
172
     1
173
     1
174
     1
175
     1
176
     7
177
     7
271
     2
178
     7
271
     2
340
243
  0
DIMSTYLE
105
264
102
{ACAD_REACTORS
330
265
102
}
330
A
100
AcDbSymbolTableRecord
100
AcDbDimStyleTableRecord
  2
ME10_DIM_12
 70
     0
 41
3.5
 42
1.0
 44
2.0
 73
     0
 74
     0
 77
     1
 78
     8
140
3.5
147
1.5
172
     1
173
     1
174
     1
175
     1
176
     7
177
     7
271
     2
178
     7
271
     2
340
243
  0
DIMSTYLE
105
26F
102
{ACAD_REACTORS
330
270
102
}
330
A
100
AcDbSymbolTableRecord
100
AcDbDimStyleTableRecord
  2
ME10_DIM_13
 70
     0
 41
3.5
 42
1.0
 44
2.0
 73
     0
 74
     0
 77
     1
 78
     8
140
3.5
147
1.5
172
     1
173
     1
174
     1
175
     1
176
     7
177
     7
271
     2
178
     7
271
     2
340
243
  0
DIMSTYLE
105
27C
102
{ACAD_REACTORS
330
27D
102
}
330
A
100
AcDbSymbolTableRecord
100
AcDbDimStyleTableRecord
  2
ME10_DIM_14
 70
     0
 41
3.5
 42
1.0
 44
2.0
 73
     0
 74
     0
 77
     1
 78
     8
140
3.5
147
1.5
172
     1
173
     1
174
     1
175
     1
176
     7
177
     7
271
     2
178
     7
271
     2
340
243
  0
DIMSTYLE
105
287
102
{ACAD_REACTORS
330
288
102
}
330
A
100
AcDbSymbolTableRecord
100
AcDbDimStyleTableRecord
  2
ME10_DIM_15
 70
     0
 41
3.5
 42
1.0
 44
2.0
 73
     0
 74
     0
 77
     1
 78
     8
140
3.5
147
1.5
172
     1
173
     1
174
     1
175
     1
176
     7
177
     7
271
     2
178
     7
271
     2
340
243
  0
DIMSTYLE
105
292
102
{ACAD_REACTORS
330
293
102
}
330
A
100
AcDbSymbolTableRecord
100
AcDbDimStyleTableRecord
  2
ME10_DIM_16
 70
     0
 41
3.5
 42
1.0
 44
2.0
 73
     0
 74
     0
 77
     1
 78
     8
140
3.5
147
1.5
172
     1
173
     1
174
     1
175
     1
176
     7
177
     7
271
     2
178
     7
271
     2
340
243
  0
DIMSTYLE
105
29D
102
{ACAD_REACTORS
330
29E
102
}
330
A
100
AcDbSymbolTableRecord
100
AcDbDimStyleTableRecord
  2
ME10_DIM_17
 70
     0
 41
3.5
 42
1.0
 44
2.0
 73
     0
 74
     0
 77
     1
 78
     8
140
3.5
147
1.5
172
     1
173
     1
174
     1
175
     1
176
     7
177
     7
271
     2
178
     7
271
     2
340
243
  0
ENDTAB
  0
TABLE
  2
BLOCK_RECORD
  5
1
330
0
100
AcDbSymbolTable
 70
    13
  0
BLOCK_RECORD
  5
1F
330
1
100
AcDbSymbolTableRecord
100
AcDbBlockTableRecord
  2
*Model_Space
340
22
  0
BLOCK_RECORD
  5
1B
330
1
100
AcDbSymbolTableRecord
100
AcDbBlockTableRecord
  2
*Paper_Space
340
1E
  0
BLOCK_RECORD
  5
23
330
1
100
AcDbSymbolTableRecord
100
AcDbBlockTableRecord
  2
*Paper_Space0
340
26
  0
BLOCK_RECORD
  5
72
330
1
100
AcDbSymbolTableRecord
100
AcDbBlockTableRecord
  2
Anteriore1
340
0
102
{BLKREFS
331
76
102
}
  0
BLOCK_RECORD
  5
75
330
1
100
AcDbSymbolTableRecord
100
AcDbBlockTableRecord
  2
1
340
0
102
{BLKREFS
331
7A
102
}
  0
BLOCK_RECORD
  5
79
330
1
100
AcDbSymbolTableRecord
100
AcDbBlockTableRecord
  2
JPP_25_L21__1
340
0
102
{BLKREFS
331
80
102
}
  0
BLOCK_RECORD
  5
7D
330
1
100
AcDbSymbolTableRecord
100
AcDbBlockTableRecord
  2
_formato_A4
340
0
102
{BLKREFS
331
81
102
}
  0
BLOCK_RECORD
  5
245
330
1
100
AcDbSymbolTableRecord
100
AcDbBlockTableRecord
  2
*D5
340
0
  0
BLOCK_RECORD
  5
250
330
1
100
AcDbSymbolTableRecord
100
AcDbBlockTableRecord
  2
*D6
340
0
  0
BLOCK_RECORD
  5
25B
330
1
100
AcDbSymbolTableRecord
100
AcDbBlockTableRecord
  2
*D7
340
0
  0
BLOCK_RECORD
  5
266
330
1
100
AcDbSymbolTableRecord
100
AcDbBlockTableRecord
  2
*D8
340
0
  0
BLOCK_RECORD
  5
271
330
1
100
AcDbSymbolTableRecord
100
AcDbBlockTableRecord
  2
*D9
340
0
  0
BLOCK_RECORD
  5
27E
330
1
100
AcDbSymbolTableRecord
100
AcDbBlockTableRecord
  2
*D10
340
0
  0
BLOCK_RECORD
  5
289
330
1
100
AcDbSymbolTableRecord
100
AcDbBlockTableRecord
  2
*D11
340
0
  0
BLOCK_RECORD
  5
294
330
1
100
AcDbSymbolTableRecord
100
AcDbBlockTableRecord
  2
*D12
340
0
  0
ENDTAB
  0
ENDSEC
  0
SECTION
  2
BLOCKS
  0
BLOCK
  5
20
330
1F
100
AcDbEntity
  8
0
100
AcDbBlockBegin
  2
*Model_Space
 70
     0
 10
0.0
 20
0.0
 30
0.0
  3
*Model_Space
  1
*Model_Space
  0
ENDBLK
  5
21
330
1F
100
AcDbEntity
  8
0
100
AcDbBlockEnd
  0
BLOCK
  5
1C
330
1B
100
AcDbEntity
 67
     1
  8
0
100
AcDbBlockBegin
  2
*Paper_Space
 70
     0
 10
0.0
 20
0.0
 30
0.0
  3
*Paper_Space
  1
*Paper_Space
  0
ENDBLK
  5
1D
330
1B
100
AcDbEntity
 67
     1
  8
0
100
AcDbBlockEnd
  0
BLOCK
  5
24
330
23
100
AcDbEntity
  8
0
100
AcDbBlockBegin
  2
*Paper_Space0
 70
     0
 10
0.0
 20
0.0
 30
0.0
  3
*Paper_Space0
  1
*Paper_Space0
  0
ENDBLK
  5
25
330
23
100
AcDbEntity
  8
0
100
AcDbBlockEnd
  0
BLOCK
  5
73
330
72
100
AcDbEntity
  8
0
100
AcDbBlockBegin
  2
Anteriore1
 70
     0
 10
-188.7893408870961
 20
112.1262948249479
 30
0.0
  3
Anteriore1
  1
Anteriore1
  0
LINE
  5
82
330
72
100
AcDbEntity
  8
1
  6
Continuous
 62
     7
100
AcDbLine
 10
-47.0968761604056
 20
132.6262945436459
 30
0.0
 11
-42.52849484407122
 21
132.6262945436459
 31
0.0
  0
LINE
  5
83
330
72
100
AcDbEntity
  8
0
  6
Continuous
 62
     7
100
AcDbLine
 10
-98.98934192612872
 20
79.62629454364591
 30
0.0
 11
-101.9893419261287
 21
79.62629454364591
 31
0.0
  0
LINE
  5
84
330
72
100
AcDbEntity
  8
0
  6
Continuous
 62
     7
100
AcDbLine
 10
-93.25715464130401
 20
79.62629454364591
 30
0.0
 11
-98.98934192612872
 21
79.62629454364591
 31
0.0
  0
LINE
  5
85
330
72
100
AcDbEntity
  8
0
  6
Continuous
 62
     7
100
AcDbLine
 10
-51.98934192612872
 20
79.62629454364591
 30
0.0
 11
-54.98934192612872
 21
79.62629454364591
 31
0.0
  0
LINE
  5
86
330
72
100
AcDbEntity
  8
0
  6
Continuous
 62
     7
100
AcDbLine
 10
-54.98934192612872
 20
79.62629454364591
 30
0.0
 11
-60.72152921095342
 21
79.62629454364591
 31
0.0
  0
LINE
  5
87
330
72
100
AcDbEntity
  8
0
  6
Continuous
 62
     7
100
AcDbLine
 10
-93.13934192612875
 20
93.1262945436458
 30
0.0
 11
-93.25715464130401
 21
79.62629454364591
 31
0.0
  0
LINE
  5
88
330
72
100
AcDbEntity
  8
0
  6
Continuous
 62
     7
100
AcDbLine
 10
-60.72152921095342
 20
79.62629454364591
 30
0.0
 11
-60.83934192612874
 21
93.12629454364591
 31
0.0
  0
LINE
  5
89
330
72
100
AcDbEntity
  8
0
  6
Continuous
 62
     7
100
AcDbLine
 10
-56.78601009323741
 20
148.6262945436444
 30
0.0
 11
-56.78601009323934
 21
132.6051125274774
 31
0.0
  0
LINE
  5
8A
330
72
100
AcDbEntity
  8
0
  6
Continuous
 62
     7
100
AcDbLine
 10
-54.50800372892753
 20
134.7431039111594
 30
0.0
 11
-54.50104687670093
 21
134.6433461918228
 31
0.0
  0
LINE
  5
8B
330
72
100
AcDbEntity
  8
0
  6
Continuous
 62
     7
100
AcDbLine
 10
-54.98934219290995
 20
134.2805324493138
 30
0.0
 11
-54.98934219290983
 21
134.7262945436417
 31
0.0
  0
LINE
  5
8C
330
72
100
AcDbEntity
  8
0
  6
Continuous
 62
     7
100
AcDbLine
 10
-56.78601009323934
 20
132.6051125274774
 30
0.0
 11
-54.98934219290995
 21
134.2805324493138
 31
0.0
  0
LINE
  5
8D
330
72
100
AcDbEntity
  8
0
  6
Continuous
 62
     7
100
AcDbLine
 10
-56.78601009323934
 20
132.6051125274774
 30
0.0
 11
-62.28934192612873
 21
127.4731725692862
 31
0.0
  0
LINE
  5
8E
330
72
100
AcDbEntity
  8
0
  6
Continuous
 62
     7
100
AcDbLine
 10
-101.9893419261287
 20
79.62629454364591
 30
0.0
 11
-101.9893419261287
 21
75.62629454364591
 31
0.0
  0
LINE
  5
8F
330
72
100
AcDbEntity
  8
0
  6
Continuous
 62
     7
100
AcDbLine
 10
-64.38934192612875
 20
76.62629454364591
 30
0.0
 11
-60.69534860758121
 21
76.62629454364591
 31
0.0
  0
LINE
  5
90
330
72
100
AcDbEntity
  8
0
  6
Continuous
 62
     7
100
AcDbLine
 10
-64.38934192612875
 20
75.62629454364591
 30
0.0
 11
-64.38934192612875
 21
76.62629454364591
 31
0.0
  0
LINE
  5
91
330
72
100
AcDbEntity
  8
0
  6
Continuous
 62
     7
100
AcDbLine
 10
-54.98934192612872
 20
75.62629454364591
 30
0.0
 11
-64.38934192612875
 21
75.62629454364591
 31
0.0
  0
LINE
  5
92
330
72
100
AcDbEntity
  8
0
  6
Continuous
 62
     7
100
AcDbLine
 10
-89.58934192612874
 20
76.62629454364591
 30
0.0
 11
-93.28333524467622
 21
76.62629454364591
 31
0.0
  0
LINE
  5
93
330
72
100
AcDbEntity
  8
0
  6
Continuous
 62
     7
100
AcDbLine
 10
-93.25715464130401
 20
79.62629454364591
 30
0.0
 11
-93.28333524467622
 21
76.62629454364591
 31
0.0
  0
LINE
  5
94
330
72
100
AcDbEntity
  8
0
  6
Continuous
 62
     7
100
AcDbLine
 10
-60.69534860758121
 20
76.62629454364591
 30
0.0
 11
-60.72152921095342
 21
79.62629454364591
 31
0.0
  0
LINE
  5
95
330
72
100
AcDbEntity
  8
0
  6
Continuous
 62
     7
100
AcDbLine
 10
-89.58934192612874
 20
75.62629454364591
 30
0.0
 11
-89.58934192612874
 21
76.62629454364591
 31
0.0
  0
LINE
  5
96
330
72
100
AcDbEntity
  8
0
  6
Continuous
 62
     7
100
AcDbLine
 10
-98.98934192612872
 20
79.62629454364591
 30
0.0
 11
-98.98934192612872
 21
75.62629454364591
 31
0.0
  0
LINE
  5
97
330
72
100
AcDbEntity
  8
0
  6
Continuous
 62
     7
100
AcDbLine
 10
-89.58934192612874
 20
75.62629454364591
 30
0.0
 11
-98.98934192612872
 21
75.62629454364591
 31
0.0
  0
LINE
  5
98
330
72
100
AcDbEntity
  8
0
  6
Continuous
 62
     7
100
AcDbLine
 10
-98.98934192612872
 20
75.62629454364591
 30
0.0
 11
-101.9893419261287
 21
75.62629454364591
 31
0.0
  0
LINE
  5
99
330
72
100
AcDbEntity
  8
0
  6
Continuous
 62
     7
100
AcDbLine
 10
-54.98934192612872
 20
79.62629454364591
 30
0.0
 11
-54.98934192612872
 21
75.62629454364591
 31
0.0
  0
LINE
  5
9A
330
72
100
AcDbEntity
  8
0
  6
Continuous
 62
     7
100
AcDbLine
 10
-89.58934192612874
 20
76.62629454364591
 30
0.0
 11
-64.38934192612875
 21
76.62629454364591
 31
0.0
  0
LINE
  5
9B
330
72
100
AcDbEntity
  8
0
  6
Continuous
 62
     7
100
AcDbLine
 10
-49.26898294227881
 20
145.4847255775892
 30
0.0
 11
-49.18607918502325
 21
145.5406448679363
 31
0.0
  0
LINE
  5
9C
330
72
100
AcDbEntity
  8
0
  6
Continuous
 62
     7
100
AcDbLine
 10
-48.69778386881445
 20
144.6948925711646
 30
0.0
 11
-48.78766327344444
 21
144.6510554564857
 31
0.0
  0
LINE
  5
9D
330
72
100
AcDbEntity
  8
0
  6
Continuous
 62
     7
100
AcDbLine
 10
-48.33194657884265
 20
143.7894135042656
 30
0.0
 11
-48.42705223047223
 21
143.7585118048281
 31
0.0
  0
LINE
  5
9E
330
72
100
AcDbEntity
  8
0
  6
Continuous
 62
     7
100
AcDbLine
 10
-48.09568792182343
 20
142.8418317873094
 30
0.0
 11
-48.19416869712462
 21
142.8244669695427
 31
0.0
  0
LINE
  5
9F
330
72
100
AcDbEntity
  8
0
  6
Continuous
 62
     7
100
AcDbLine
 10
-48.09354564272975
 20
141.8671055453322
 30
0.0
 11
-47.99357601464403
 21
141.8697192322914
 31
0.0
  0
LINE
  5
A0
330
72
100
AcDbEntity
  8
0
  6
Continuous
 62
     7
100
AcDbLine
 10
-48.02768892533113
 20
140.8945953007673
 30
0.0
 11
-48.12714111486805
 21
140.905048147094
 31
0.0
  0
LINE
  5
A1
330
72
100
AcDbEntity
  8
0
  6
Continuous
 62
     7
100
AcDbLine
 10
-48.29430168160486
 20
139.9570334640032
 30
0.0
 11
-48.19727210897726
 21
139.9328412744432
 31
0.0
  0
LINE
  5
A2
330
72
100
AcDbEntity
  8
0
  6
Continuous
 62
     7
100
AcDbLine
 10
-65.03295892027144
 20
128.4664867871297
 30
0.0
 11
-70.31738696191424
 21
123.5386779166889
 31
0.0
  0
LINE
  5
A3
330
72
100
AcDbEntity
  8
0
  6
Continuous
 62
     7
100
AcDbLine
 10
-71.87636918579513
 20
127.2561336894463
 30
0.0
 11
-68.14715383646684
 21
130.7336832621511
 31
0.0
  0
LINE
  5
A4
330
72
100
AcDbEntity
  8
0
  6
Continuous
 62
     7
100
AcDbLine
 10
-62.28934192612873
 20
127.4731725692862
 30
0.0
 11
-62.28934192612873
 21
99.81453048446011
 31
0.0
  0
LINE
  5
A5
330
72
100
AcDbEntity
  8
0
  6
Continuous
 62
     7
100
AcDbLine
 10
-68.78934192612873
 20
121.4118245093915
 30
0.0
 11
-68.78934192612873
 21
107.0396873721403
 31
0.0
  0
LINE
  5
A6
330
72
100
AcDbEntity
  8
0
  6
Continuous
 62
     7
100
AcDbLine
 10
-72.41995318049142
 20
118.0262247427971
 30
0.0
 11
-62.28934192612873
 21
127.4731725692862
 31
0.0
  0
LINE
  5
A7
330
72
100
AcDbEntity
  8
0
  6
Continuous
 62
     7
100
AcDbLine
 10
-91.68934192612876
 20
132.6262945436459
 30
0.0
 11
-91.68934192612876
 21
99.81453048446022
 31
0.0
  0
LINE
  5
A8
330
72
100
AcDbEntity
  8
0
  6
Continuous
 62
     7
100
AcDbLine
 10
-85.18934192612876
 20
132.6262945436459
 30
0.0
 11
-91.68934192612876
 21
132.6262945436459
 31
0.0
  0
LINE
  5
A9
330
72
100
AcDbEntity
  8
0
  6
Continuous
 62
     7
100
AcDbLine
 10
-85.18934192612876
 20
132.6262945436459
 30
0.0
 11
-85.18934192612876
 21
107.0396873721403
 31
0.0
  0
LINE
  5
AA
330
72
100
AcDbEntity
  8
0
  6
Continuous
 62
     7
100
AcDbLine
 10
-85.18934192612876
 20
132.6262945436459
 30
0.0
 11
-76.41143624945973
 21
132.6262945436459
 31
0.0
  0
LINE
  5
AB
330
72
100
AcDbEntity
  8
0
  6
Continuous
 62
     7
100
AcDbLine
 10
-80.18157308667976
 20
140.7262945436464
 30
0.0
 11
-76.98934219290824
 21
140.7262945436464
 31
0.0
  0
LINE
  5
AC
330
72
100
AcDbEntity
  8
0
  6
Continuous
 62
     7
100
AcDbLine
 10
-75.48934219290824
 20
133.4861611622076
 30
0.0
 11
-76.41143624945973
 21
132.6262945436459
 31
0.0
  0
LINE
  5
AD
330
72
100
AcDbEntity
  8
0
  6
Continuous
 62
     7
100
AcDbLine
 10
-75.48934219290824
 20
133.4861611622076
 30
0.0
 11
-75.48934219290824
 21
139.2262945436461
 31
0.0
  0
LINE
  5
AE
330
72
100
AcDbEntity
  8
0
  6
Continuous
 62
     7
100
AcDbLine
 10
-76.41143624945973
 20
132.6262945436459
 30
0.0
 11
-81.55873120532011
 21
127.8263643444935
 31
0.0
  0
LINE
  5
AF
330
72
100
AcDbEntity
  8
0
  6
Continuous
 62
     7
100
AcDbLine
 10
-51.98934192612872
 20
75.62629454364591
 30
0.0
 11
-54.98934192612872
 21
75.62629454364591
 31
0.0
  0
LINE
  5
B0
330
72
100
AcDbEntity
  8
0
  6
Continuous
 62
     7
100
AcDbLine
 10
-51.74998840968716
 20
135.5339561529147
 30
0.0
 11
-51.70304125340853
 21
135.4456613936288
 31
0.0
  0
LINE
  5
B1
330
72
100
AcDbEntity
  8
0
  6
Continuous
 62
     7
100
AcDbLine
 10
-52.59520118963015
 20
135.04844619814
 30
0.0
 11
-52.62940320396275
 21
135.1424154602186
 31
0.0
  0
LINE
  5
B2
330
72
100
AcDbEntity
  8
0
  6
Continuous
 62
     7
100
AcDbLine
 10
-53.55475152626731
 20
134.8770760985782
 30
0.0
 11
-53.53396035718556
 21
134.7792613385048
 31
0.0
  0
LINE
  5
B3
330
72
100
AcDbEntity
  8
0
  6
Continuous
 62
     7
100
AcDbLine
 10
-51.98934192612872
 20
79.62629454364591
 30
0.0
 11
-51.98934192612872
 21
75.62629454364591
 31
0.0
  0
LINE
  5
B4
330
72
100
AcDbEntity
  8
0
  6
Continuous
 62
     7
100
AcDbLine
 10
-54.02904779628393
 20
148.6262945436444
 30
0.0
 11
-56.78601009323741
 21
148.6262945436444
 31
0.0
  0
LINE
  5
B5
330
72
100
AcDbEntity
  8
0
  6
Continuous
 62
     7
100
AcDbLine
 10
-56.78601009323741
 20
148.6262945436444
 30
0.0
 11
-79.44759976240256
 21
148.6262945436444
 31
0.0
  0
LINE
  5
B6
330
72
100
AcDbEntity
  8
0
  6
Continuous
 62
     7
100
AcDbLine
 10
-54.02904779628393
 20
148.6262945436444
 30
0.0
 11
-54.01513048618786
 21
148.5581710248326
 31
0.0
  0
LINE
  5
B7
330
72
100
AcDbEntity
  8
0
  6
Continuous
 62
     7
100
AcDbLine
 10
-54.02904779628393
 20
148.4591442179585
 30
0.0
 11
-54.01513048618786
 21
148.5581710248326
 31
0.0
  0
LINE
  5
B8
330
72
100
AcDbEntity
  8
0
  6
Continuous
 62
     7
100
AcDbLine
 10
-53.08744443777086
 20
148.2590002456167
 30
0.0
 11
-53.05988070218935
 21
148.3551264152098
 31
0.0
  0
LINE
  5
B9
330
72
100
AcDbEntity
  8
0
  6
Continuous
 62
     7
100
AcDbLine
 10
-52.14218569137775
 20
148.0211127471396
 30
0.0
 11
-52.18285935568464
 21
147.9297582013768
 31
0.0
  0
LINE
  5
BA
330
72
100
AcDbEntity
  8
0
  6
Continuous
 62
     7
100
AcDbLine
 10
-51.33289926969873
 20
147.4778264071203
 30
0.0
 11
-51.27990734327592
 21
147.5626312167363
 31
0.0
  0
LINE
  5
BB
330
72
100
AcDbEntity
  8
0
  6
Continuous
 62
     7
100
AcDbLine
 10
-50.55410768607113
 20
146.9120012011623
 30
0.0
 11
-50.48982892510266
 21
146.988605645474
 31
0.0
  0
LINE
  5
BC
330
72
100
AcDbEntity
  8
0
  6
Continuous
 62
     7
100
AcDbLine
 10
-49.86164289711412
 20
146.243295727517
 30
0.0
 11
-49.82747591067125
 21
146.2740598202922
 31
0.0
  0
LINE
  5
BD
330
72
100
AcDbEntity
  8
0
  6
Continuous
 62
     7
100
AcDbLine
 10
-49.82747591067125
 20
146.2740598202922
 30
0.0
 11
-49.78732841456652
 21
146.310208788153
 31
0.0
  0
LINE
  5
BE
330
72
100
AcDbEntity
  8
0
  6
Continuous
 62
     7
100
AcDbLine
 10
-49.82747591067125
 20
146.2740598202922
 30
0.0
 11
-49.80497461731831
 21
146.1795716976445
 31
0.0
  0
LINE
  5
BF
330
72
100
AcDbEntity
  8
0
  6
Continuous
 62
     7
100
AcDbLine
 10
-79.48934219293234
 20
146.1262945436443
 30
0.0
 11
-71.98934219290722
 21
146.1262945436425
 31
0.0
  0
LINE
  5
C0
330
72
100
AcDbEntity
  8
0
  6
Continuous
 62
     7
100
AcDbLine
 10
-72.98934219290813
 20
143.0262945436429
 30
0.0
 11
-79.48934219293263
 21
143.0262945436437
 31
0.0
  0
LINE
  5
C1
330
72
100
AcDbEntity
  8
0
  6
Continuous
 62
     7
100
AcDbLine
 10
-48.49905521094185
 20
139.0040483897295
 30
0.0
 11
-48.59177359639854
 21
139.0415090490711
 31
0.0
  0
LINE
  5
C2
330
72
100
AcDbEntity
  8
0
  6
Continuous
 62
     7
100
AcDbLine
 10
-49.01376690679685
 20
138.1762945436409
 30
0.0
 11
-48.92716436641832
 21
138.126294543641
 31
0.0
  0
LINE
  5
C3
330
72
100
AcDbEntity
  8
0
  6
Continuous
 62
     7
100
AcDbLine
 10
-49.55206799302336
 20
137.3782303638941
 30
0.0
 11
-49.47326691766251
 21
137.3166642163614
 31
0.0
  0
LINE
  5
C4
330
72
100
AcDbEntity
  8
0
  6
Continuous
 62
     7
100
AcDbLine
 10
-50.19619943674202
 20
136.6628499213039
 30
0.0
 11
-50.12673359969644
 21
136.5909159412704
 31
0.0
  0
LINE
  5
C5
330
72
100
AcDbEntity
  8
0
  6
Continuous
 62
     7
100
AcDbLine
 10
-50.87484542686242
 20
135.9631755830166
 30
0.0
 11
-50.93362395209165
 21
136.044077282454
 31
0.0
  0
LINE
  5
C6
330
72
100
AcDbEntity
  8
0
  6
Continuous
 62
     7
100
AcDbLine
 10
-48.15672042522353
 20
140.6643799009882
 30
0.0
 11
-48.05574859216712
 21
140.6643799009882
 31
0.0
  0
LINE
  5
C7
330
72
100
AcDbEntity
  8
0
  6
Continuous
 62
     7
100
AcDbLine
 10
-48.03384641837785
 20
140.8382091862849
 30
0.0
 11
-48.13449562500291
 21
140.8382091862938
 31
0.0
  0
LINE
  5
C8
330
72
100
AcDbEntity
  8
1
  6
DOT_CENTER
 62
     7
100
AcDbLine
 10
-96.98934192612872
 20
83.3121665684169
 30
0.0
 11
-96.98934192612872
 21
73.3121665684169
 31
0.0
  0
LINE
  5
C9
330
72
100
AcDbEntity
  8
1
  6
DOT_CENTER
 62
     7
100
AcDbLine
 10
-56.98934192612872
 20
73.3121665684169
 30
0.0
 11
-56.98934192612872
 21
83.3121665684169
 31
0.0
  0
LINE
  5
CA
330
72
100
AcDbEntity
  8
1
  6
DOT_CENTER
 62
     7
100
AcDbLine
 10
-246.48934227882
 20
83.3121665684169
 30
0.0
 11
-246.48934227882
 21
73.3121665684169
 31
0.0
  0
LINE
  5
CB
330
72
100
AcDbEntity
  8
1
  6
DOT_CENTER
 62
     7
100
AcDbLine
 10
-182.48934227882
 20
73.3121665684169
 30
0.0
 11
-182.48934227882
 21
83.3121665684169
 31
0.0
  0
LINE
  5
CC
330
72
100
AcDbEntity
  8
0
  6
Continuous
 62
     7
100
AcDbLine
 10
-206.98934227882
 20
142.8418317873106
 30
0.0
 11
-206.98934227882
 21
142.8244669695427
 31
0.0
  0
LINE
  5
CD
330
72
100
AcDbEntity
  8
0
  6
Continuous
 62
     7
100
AcDbLine
 10
-206.98934227882
 20
141.8705910205583
 30
0.0
 11
-206.98934227882
 21
142.8244669695427
 31
0.0
  0
LINE
  5
CE
330
72
100
AcDbEntity
  8
0
  6
Continuous
 62
     7
100
AcDbLine
 10
-183.9682846982709
 20
141.8697213374326
 30
0.0
 11
-183.7951323500548
 21
141.8671055458619
 31
0.0
  0
LINE
  5
CF
330
72
100
AcDbEntity
  8
0
  6
Continuous
 62
     7
100
AcDbLine
 10
-183.9682846982709
 20
141.8697213374326
 30
0.0
 11
-206.98934227882
 21
141.8705910205583
 31
0.0
  0
LINE
  5
D0
330
72
100
AcDbEntity
  8
0
  6
Continuous
 62
     7
100
AcDbLine
 10
-206.98934227882
 20
140.9050481470941
 30
0.0
 11
-206.98934227882
 21
141.8705910205583
 31
0.0
  0
LINE
  5
D1
330
72
100
AcDbEntity
  8
0
  6
Continuous
 62
     7
100
AcDbLine
 10
-183.620848107462
 20
142.8244669695427
 30
0.0
 11
-183.7914218138523
 21
142.8418317873094
 31
0.0
  0
LINE
  5
D2
330
72
100
AcDbEntity
  8
0
  6
Continuous
 62
     7
100
AcDbLine
 10
-206.98934227882
 20
142.8418317873106
 30
0.0
 11
-183.7914218138523
 21
142.8418317873094
 31
0.0
  0
LINE
  5
D3
330
72
100
AcDbEntity
  8
0
  6
Continuous
 62
     7
100
AcDbLine
 10
-183.7369432854394
 20
140.905048147094
 30
0.0
 11
-183.9091995306411
 21
140.8945953007673
 31
0.0
  0
LINE
  5
D4
330
72
100
AcDbEntity
  8
0
  6
Continuous
 62
     7
100
AcDbLine
 10
-183.620848107462
 20
142.8244669695427
 30
0.0
 11
-206.98934227882
 21
142.8244669695427
 31
0.0
  0
LINE
  5
D5
330
72
100
AcDbEntity
  8
0
  6
Continuous
 62
     7
100
AcDbLine
 10
-206.98934227882
 20
142.8418317873106
 30
0.0
 11
-206.98934227882
 21
143.7894135042656
 31
0.0
  0
LINE
  5
D6
330
72
100
AcDbEntity
  8
0
  6
Continuous
 62
     7
100
AcDbLine
 10
-191.2014799223798
 20
76.62629454364591
 30
0.0
 11
-186.98934227882
 21
76.62629454364591
 31
0.0
  0
LINE
  5
D7
330
72
100
AcDbEntity
  8
0
  6
Continuous
 62
     7
100
AcDbLine
 10
-191.2014799223798
 20
99.81453048446011
 30
0.0
 11
-181.2393422788202
 21
99.81453048446022
 31
0.0
  0
LINE
  5
D8
330
72
100
AcDbEntity
  8
0
  6
Continuous
 62
     7
100
AcDbLine
 10
-184.2879272725573
 20
79.62629454364591
 30
0.0
 11
-190.1036856407132
 21
79.62629454364591
 31
0.0
  0
LINE
  5
D9
330
72
100
AcDbEntity
  8
0
  6
Continuous
 62
     7
100
AcDbLine
 10
-189.9943874399068
 20
148.6262945436444
 30
0.0
 11
-189.9698878461269
 21
148.6262945436444
 31
0.0
  0
LINE
  5
DA
330
72
100
AcDbEntity
  8
0
  6
Continuous
 62
     7
100
AcDbLine
 10
-181.7592152261555
 20
145.4847255775893
 30
0.0
 11
-181.9028087458604
 21
145.5406448679363
 31
0.0
  0
LINE
  5
DB
330
72
100
AcDbEntity
  8
0
  6
Continuous
 62
     7
100
AcDbLine
 10
-180.8614145322793
 20
146.3102087881532
 30
0.0
 11
-180.7326980727684
 21
146.2432957275173
 31
0.0
  0
LINE
  5
DC
330
72
100
AcDbEntity
  8
0
  6
Continuous
 62
     7
100
AcDbLine
 10
-179.5333138758427
 20
146.9120012011621
 30
0.0
 11
-179.644647955688
 21
146.988605645474
 31
0.0
  0
LINE
  5
DD
330
72
100
AcDbEntity
  8
0
  6
Continuous
 62
     7
100
AcDbLine
 10
-178.276191993448
 20
147.5626312167361
 30
0.0
 11
-178.1844072844919
 21
147.4778264071205
 31
0.0
  0
LINE
  5
DE
330
72
100
AcDbEntity
  8
0
  6
Continuous
 62
     7
100
AcDbLine
 10
-176.7122332311585
 20
147.9297582013753
 30
0.0
 11
-176.7826820842692
 21
148.0211127471396
 31
0.0
  0
LINE
  5
DF
330
72
100
AcDbEntity
  8
0
  6
Continuous
 62
     7
100
AcDbLine
 10
-173.5145410516952
 20
148.4591442179585
 30
0.0
 11
-173.5386465398863
 21
148.5581710248326
 31
0.0
  0
LINE
  5
E0
330
72
100
AcDbEntity
  8
0
  6
Continuous
 62
     7
100
AcDbLine
 10
-175.1931876996909
 20
148.3551264152098
 30
0.0
 11
-175.1454459092171
 21
148.2590002456159
 31
0.0
  0
LINE
  5
E1
330
72
100
AcDbEntity
  8
0
  6
Continuous
 62
     7
100
AcDbLine
 10
-173.514541051695
 20
148.6262945436444
 30
0.0
 11
-173.5145410516952
 21
148.4591442179585
 31
0.0
  0
LINE
  5
E2
330
72
100
AcDbEntity
  8
0
  6
Continuous
 62
     7
100
AcDbLine
 10
-173.514541051695
 20
148.6262945436444
 30
0.0
 11
-168.73934227882
 21
148.6262945436444
 31
0.0
  0
LINE
  5
E3
330
72
100
AcDbEntity
  8
0
  6
Continuous
 62
     7
100
AcDbLine
 10
-182.7485610426321
 20
144.6948925711646
 30
0.0
 11
-182.5928853472592
 21
144.6510554564856
 31
0.0
  0
LINE
  5
E4
330
72
100
AcDbEntity
  8
0
  6
Continuous
 62
     7
100
AcDbLine
 10
-173.514541051695
 20
148.6262945436444
 30
0.0
 11
-189.9698878461269
 21
148.6262945436444
 31
0.0
  0
LINE
  5
E5
330
72
100
AcDbEntity
  8
0
  6
Continuous
 62
     7
100
AcDbLine
 10
-190.1036856407132
 20
79.62629454364591
 30
0.0
 11
-190.1861789919758
 21
93.12629454364591
 31
0.0
  0
LINE
  5
E6
330
72
100
AcDbEntity
  8
0
  6
Continuous
 62
     7
100
AcDbLine
 10
-191.2014799223798
 20
99.81453048446011
 30
0.0
 11
-191.2014799223798
 21
76.62629454364591
 31
0.0
  0
LINE
  5
E7
330
72
100
AcDbEntity
  8
0
  6
Continuous
 62
     7
100
AcDbLine
 10
-174.73934227882
 20
120.5262945436459
 30
0.0
 11
-174.73934227882
 21
109.2762945436459
 31
0.0
  0
LINE
  5
E8
330
72
100
AcDbEntity
  8
0
  6
Continuous
 62
     7
100
AcDbLine
 10
-173.5386465398863
 20
148.5581710248326
 30
0.0
 11
-255.4400380177536
 21
148.5581710248326
 31
0.0
  0
LINE
  5
E9
330
72
100
AcDbEntity
  8
0
  6
Continuous
 62
     7
100
AcDbLine
 10
-255.4641435059448
 20
148.5262945436417
 30
0.0
 11
-255.4400380177536
 21
148.5581710248326
 31
0.0
  0
LINE
  5
EA
330
72
100
AcDbEntity
  8
0
  6
Continuous
 62
     7
100
AcDbLine
 10
-255.4641435059448
 20
148.6262945436444
 30
0.0
 11
-189.9943874399068
 21
148.6262945436444
 31
0.0
  0
LINE
  5
EB
330
72
100
AcDbEntity
  8
0
  6
Continuous
 62
     7
100
AcDbLine
 10
-252.1960024733706
 20
148.0211127471396
 30
0.0
 11
-252.2664513264803
 21
147.9297582013768
 31
0.0
  0
LINE
  5
EC
330
72
100
AcDbEntity
  8
0
  6
Continuous
 62
     7
100
AcDbLine
 10
-249.4453706817969
 20
146.9120012011623
 30
0.0
 11
-249.3340366019519
 21
146.988605645474
 31
0.0
  0
LINE
  5
ED
330
72
100
AcDbEntity
  8
0
  6
Continuous
 62
     7
100
AcDbLine
 10
-250.794277273147
 20
147.4778264071203
 30
0.0
 11
-250.7024925641917
 21
147.5626312167363
 31
0.0
  0
LINE
  5
EE
330
72
100
AcDbEntity
  8
0
  6
Continuous
 62
     7
100
AcDbLine
 10
-248.2459864848708
 20
146.2432957275169
 30
0.0
 11
-195.4893422788202
 21
146.2432957275173
 31
0.0
  0
LINE
  5
EF
330
72
100
AcDbEntity
  8
0
  6
Continuous
 62
     7
100
AcDbLine
 10
-181.9028087458604
 20
145.5406448679363
 30
0.0
 11
-247.0758758117795
 21
145.5406448679363
 31
0.0
  0
LINE
  5
F0
330
72
100
AcDbEntity
  8
0
  6
Continuous
 62
     7
100
AcDbLine
 10
-195.4893422788202
 20
146.2740598202922
 30
0.0
 11
-195.4893422788202
 21
146.2432957275173
 31
0.0
  0
LINE
  5
F1
330
72
100
AcDbEntity
  8
0
  6
Continuous
 62
     7
100
AcDbLine
 10
-180.7326980727684
 20
146.2432957275173
 30
0.0
 11
-195.4132605839917
 21
146.2432957275172
 31
0.0
  0
LINE
  5
F2
330
72
100
AcDbEntity
  8
0
  6
Continuous
 62
     7
100
AcDbLine
 10
-195.4893422788202
 20
146.2432957275173
 30
0.0
 11
-195.4893422788202
 21
146.1795716976445
 31
0.0
  0
LINE
  5
F3
330
72
100
AcDbEntity
  8
0
  6
Continuous
 62
     7
100
AcDbLine
 10
-195.4893422788202
 20
146.1795716976445
 30
0.0
 11
-195.4132605839917
 21
146.2432957275172
 31
0.0
  0
LINE
  5
F4
330
72
100
AcDbEntity
  8
0
  6
Continuous
 62
     7
100
AcDbLine
 10
-248.1172700253602
 20
146.310208788153
 30
0.0
 11
-180.8614145322793
 21
146.3102087881532
 31
0.0
  0
LINE
  5
F5
330
72
100
AcDbEntity
  8
0
  6
Continuous
 62
     7
100
AcDbLine
 10
-253.8332386484225
 20
148.2590002456166
 30
0.0
 11
-253.7854968579489
 21
148.3551264152098
 31
0.0
  0
LINE
  5
F6
330
72
100
AcDbEntity
  8
0
  6
Continuous
 62
     7
100
AcDbLine
 10
-175.1454459092171
 20
148.2590002456159
 30
0.0
 11
-253.8332386484225
 21
148.2590002456166
 31
0.0
  0
LINE
  5
F7
330
72
100
AcDbEntity
  8
0
  6
Continuous
 62
     7
100
AcDbLine
 10
-178.1844072844919
 20
147.4778264071205
 30
0.0
 11
-250.794277273147
 21
147.4778264071203
 31
0.0
  0
LINE
  5
F8
330
72
100
AcDbEntity
  8
0
  6
Continuous
 62
     7
100
AcDbLine
 10
-249.3340366019519
 20
146.988605645474
 30
0.0
 11
-179.644647955688
 21
146.988605645474
 31
0.0
  0
LINE
  5
F9
330
72
100
AcDbEntity
  8
0
  6
Continuous
 62
     7
100
AcDbLine
 10
-250.7024925641917
 20
147.5626312167363
 30
0.0
 11
-178.276191993448
 21
147.5626312167361
 31
0.0
  0
LINE
  5
FA
330
72
100
AcDbEntity
  8
0
  6
Continuous
 62
     7
100
AcDbLine
 10
-253.7854968579489
 20
148.3551264152098
 30
0.0
 11
-175.1931876996909
 21
148.3551264152098
 31
0.0
  0
LINE
  5
FB
330
72
100
AcDbEntity
  8
0
  6
Continuous
 62
     7
100
AcDbLine
 10
-252.1960024733706
 20
148.0211127471396
 30
0.0
 11
-176.7826820842692
 21
148.0211127471396
 31
0.0
  0
LINE
  5
FC
330
72
100
AcDbEntity
  8
0
  6
Continuous
 62
     7
100
AcDbLine
 10
-247.2194693314843
 20
145.4847255775892
 30
0.0
 11
-247.0758758117795
 21
145.5406448679363
 31
0.0
  0
LINE
  5
FD
330
72
100
AcDbEntity
  8
0
  6
Continuous
 62
     7
100
AcDbLine
 10
-248.2459864848708
 20
146.2432957275169
 30
0.0
 11
-248.1172700253602
 21
146.310208788153
 31
0.0
  0
LINE
  5
FE
330
72
100
AcDbEntity
  8
0
  6
Continuous
 62
     7
100
AcDbLine
 10
-246.2301235150077
 20
144.6948925711646
 30
0.0
 11
-182.7485610426321
 21
144.6948925711646
 31
0.0
  0
LINE
  5
FF
330
72
100
AcDbEntity
  8
0
  6
Continuous
 62
     7
100
AcDbLine
 10
-255.4641435059448
 20
148.4591442179585
 30
0.0
 11
-255.4641435059448
 21
148.5262945436417
 31
0.0
  0
LINE
  5
100
330
72
100
AcDbEntity
  8
0
  6
Continuous
 62
     7
100
AcDbLine
 10
-255.4641435059448
 20
148.6262945436444
 30
0.0
 11
-255.4641435059448
 21
148.5262945436417
 31
0.0
  0
LINE
  5
101
330
72
100
AcDbEntity
  8
0
  6
Continuous
 62
     7
100
AcDbLine
 10
-255.4641435059448
 20
148.6262945436444
 30
0.0
 11
-260.2393422788201
 21
148.6262945436444
 31
0.0
  0
LINE
  5
102
330
72
100
AcDbEntity
  8
0
  6
Continuous
 62
     7
100
AcDbLine
 10
-241.98934227882
 20
76.62629454364591
 30
0.0
 11
-237.7772046352602
 21
76.62629454364591
 31
0.0
  0
LINE
  5
103
330
72
100
AcDbEntity
  8
0
  6
Continuous
 62
     7
100
AcDbLine
 10
-237.7772046352602
 20
99.81453048446022
 30
0.0
 11
-237.7772046352602
 21
76.62629454364591
 31
0.0
  0
LINE
  5
104
330
72
100
AcDbEntity
  8
0
  6
Continuous
 62
     7
100
AcDbLine
 10
-247.73934227882
 20
99.81453048446022
 30
0.0
 11
-237.7772046352602
 21
99.81453048446022
 31
0.0
  0
LINE
  5
105
330
72
100
AcDbEntity
  8
0
  6
Continuous
 62
     7
100
AcDbLine
 10
-260.2393422788201
 20
118.0262247427971
 30
0.0
 11
-260.2393422788201
 21
116.2262945436455
 31
0.0
  0
LINE
  5
106
330
72
100
AcDbEntity
  8
0
  6
Continuous
 62
     7
100
AcDbLine
 10
-264.9893422788201
 20
109.2762945436459
 30
0.0
 11
-264.9893422788201
 21
93.12629454364591
 31
0.0
  0
LINE
  5
107
330
72
100
AcDbEntity
  8
0
  6
Continuous
 62
     7
100
AcDbLine
 10
-264.9893422788201
 20
109.2762945436459
 30
0.0
 11
-254.2393422788201
 21
109.2762945436459
 31
0.0
  0
LINE
  5
108
330
72
100
AcDbEntity
  8
0
  6
Continuous
 62
     7
100
AcDbLine
 10
-264.9893422788201
 20
93.12629454364591
 30
0.0
 11
-238.7925055656644
 21
93.12629454364591
 31
0.0
  0
LINE
  5
109
330
72
100
AcDbEntity
  8
0
  6
Continuous
 62
     7
100
AcDbLine
 10
-264.9893422788201
 20
76.62629454364591
 30
0.0
 11
-254.4893422788201
 21
76.62629454364591
 31
0.0
  0
LINE
  5
10A
330
72
100
AcDbEntity
  8
0
  6
Continuous
 62
     7
100
AcDbLine
 10
-264.9893422788201
 20
76.62629454364591
 30
0.0
 11
-264.9893422788201
 21
93.12629454364591
 31
0.0
  0
LINE
  5
10B
330
72
100
AcDbEntity
  8
0
  6
Continuous
 62
     7
100
AcDbLine
 10
-244.6907572850829
 20
79.62629454364591
 30
0.0
 11
-238.8749989169271
 21
79.62629454364591
 31
0.0
  0
LINE
  5
10C
330
72
100
AcDbEntity
  8
0
  6
Continuous
 62
     7
100
AcDbLine
 10
-241.98934227882
 20
75.62629454364591
 30
0.0
 11
-244.6907572850829
 21
75.62629454364591
 31
0.0
  0
LINE
  5
10D
330
72
100
AcDbEntity
  8
0
  6
Continuous
 62
     7
100
AcDbLine
 10
-241.98934227882
 20
76.62629454364591
 30
0.0
 11
-241.98934227882
 21
75.62629454364591
 31
0.0
  0
LINE
  5
10E
330
72
100
AcDbEntity
  8
0
  6
Continuous
 62
     7
100
AcDbLine
 10
-260.2393422788201
 20
116.2262945436455
 30
0.0
 11
-254.9893422788201
 21
116.2262945436455
 31
0.0
  0
LINE
  5
10F
330
72
100
AcDbEntity
  8
0
  6
Continuous
 62
     7
100
AcDbLine
 10
-254.9893422788201
 20
118.0262247427971
 30
0.0
 11
-260.2393422788201
 21
118.0262247427971
 31
0.0
  0
LINE
  5
110
330
72
100
AcDbEntity
  8
0
  6
Continuous
 62
     7
100
AcDbLine
 10
-254.2393422788201
 20
125.3262945436459
 30
0.0
 11
-254.9893422788201
 21
125.3262945436459
 31
0.0
  0
LINE
  5
111
330
72
100
AcDbEntity
  8
0
  6
Continuous
 62
     7
100
AcDbLine
 10
-260.2393422788201
 20
118.0262247427971
 30
0.0
 11
-260.2393422788201
 21
132.6051125274774
 31
0.0
  0
LINE
  5
112
330
72
100
AcDbEntity
  8
0
  6
Continuous
 62
     7
100
AcDbLine
 10
-254.2393422788201
 20
120.5262945436459
 30
0.0
 11
-254.9893422788201
 21
120.5262945436459
 31
0.0
  0
LINE
  5
113
330
72
100
AcDbEntity
  8
0
  6
Continuous
 62
     7
100
AcDbLine
 10
-254.9893422788201
 20
118.0262247427971
 30
0.0
 11
-254.9893422788201
 21
116.2262945436455
 31
0.0
  0
LINE
  5
114
330
72
100
AcDbEntity
  8
0
  6
Continuous
 62
     7
100
AcDbLine
 10
-254.9893422788201
 20
128.4056874066404
 30
0.0
 11
-254.9893422788201
 21
125.3262945436459
 31
0.0
  0
LINE
  5
115
330
72
100
AcDbEntity
  8
0
  6
Continuous
 62
     7
100
AcDbLine
 10
-254.9893422788201
 20
120.5262945436459
 30
0.0
 11
-254.9893422788201
 21
118.0262247427971
 31
0.0
  0
LINE
  5
116
330
72
100
AcDbEntity
  8
0
  6
Continuous
 62
     7
100
AcDbLine
 10
-254.9893422788201
 20
125.3262945436459
 30
0.0
 11
-254.9893422788201
 21
120.5262945436459
 31
0.0
  0
LINE
  5
117
330
72
100
AcDbEntity
  8
0
  6
Continuous
 62
     7
100
AcDbLine
 10
-244.6907572850829
 20
75.62629454364591
 30
0.0
 11
-244.6907572850829
 21
79.62629454364591
 31
0.0
  0
LINE
  5
118
330
72
100
AcDbEntity
  8
0
  6
Continuous
 62
     7
100
AcDbLine
 10
-245.5099093293718
 20
79.62629454364591
 30
0.0
 11
-244.6907572850829
 21
79.62629454364591
 31
0.0
  0
LINE
  5
119
330
72
100
AcDbEntity
  8
0
  6
Continuous
 62
     7
100
AcDbLine
 10
-244.6907572850829
 20
75.62629454364591
 30
0.0
 11
-245.5099093293718
 21
75.62629454364591
 31
0.0
  0
LINE
  5
11A
330
72
100
AcDbEntity
  8
0
  6
Continuous
 62
     7
100
AcDbLine
 10
-245.5099093293718
 20
75.62629454364591
 30
0.0
 11
-251.4893422788201
 21
75.62629454364591
 31
0.0
  0
LINE
  5
11B
330
72
100
AcDbEntity
  8
0
  6
Continuous
 62
     7
100
AcDbLine
 10
-245.5099093293718
 20
75.62629454364591
 30
0.0
 11
-245.5099093293718
 21
79.62629454364591
 31
0.0
  0
LINE
  5
11C
330
72
100
AcDbEntity
  8
0
  6
Continuous
 62
     7
100
AcDbLine
 10
-251.4893422788201
 20
79.62629454364591
 30
0.0
 11
-251.4893422788201
 21
75.62629454364591
 31
0.0
  0
LINE
  5
11D
330
72
100
AcDbEntity
  8
0
  6
Continuous
 62
     7
100
AcDbLine
 10
-254.2393422788201
 20
109.2762945436459
 30
0.0
 11
-254.2393422788201
 21
107.0396873721403
 31
0.0
  0
LINE
  5
11E
330
72
100
AcDbEntity
  8
0
  6
Continuous
 62
     7
100
AcDbLine
 10
-251.4893422788201
 20
79.62629454364591
 30
0.0
 11
-254.4893422788201
 21
79.62629454364591
 31
0.0
  0
LINE
  5
11F
330
72
100
AcDbEntity
  8
0
  6
Continuous
 62
     7
100
AcDbLine
 10
-254.4893422788201
 20
76.62629454364591
 30
0.0
 11
-254.4893422788201
 21
75.62629454364591
 31
0.0
  0
LINE
  5
120
330
72
100
AcDbEntity
  8
0
  6
Continuous
 62
     7
100
AcDbLine
 10
-254.4893422788201
 20
79.62629454364591
 30
0.0
 11
-254.4893422788201
 21
76.62629454364591
 31
0.0
  0
LINE
  5
121
330
72
100
AcDbEntity
  8
0
  6
Continuous
 62
     7
100
AcDbLine
 10
-251.4893422788201
 20
75.62629454364591
 30
0.0
 11
-254.4893422788201
 21
75.62629454364591
 31
0.0
  0
LINE
  5
122
330
72
100
AcDbEntity
  8
0
  6
Continuous
 62
     7
100
AcDbLine
 10
-246.2301235150077
 20
144.6948925711646
 30
0.0
 11
-246.3857992103807
 21
144.6510554564857
 31
0.0
  0
LINE
  5
123
330
72
100
AcDbEntity
  8
0
  6
Continuous
 62
     7
100
AcDbLine
 10
-254.2393422788201
 20
125.3262945436459
 30
0.0
 11
-254.2393422788201
 21
120.5262945436459
 31
0.0
  0
LINE
  5
124
330
72
100
AcDbEntity
  8
0
  6
Continuous
 62
     7
100
AcDbLine
 10
-251.4893422788201
 20
79.62629454364591
 30
0.0
 11
-245.5099093293718
 21
79.62629454364591
 31
0.0
  0
LINE
  5
125
330
72
100
AcDbEntity
  8
0
  6
Continuous
 62
     7
100
AcDbLine
 10
-254.2393422788201
 20
130.183469031996
 30
0.0
 11
-254.2393422788201
 21
125.3262945436459
 31
0.0
  0
LINE
  5
126
330
72
100
AcDbEntity
  8
0
  6
Continuous
 62
     7
100
AcDbLine
 10
-254.2393422788201
 20
120.5262945436459
 30
0.0
 11
-254.2393422788201
 21
109.2762945436459
 31
0.0
  0
LINE
  5
127
330
72
100
AcDbEntity
  8
0
  6
Continuous
 62
     7
100
AcDbLine
 10
-238.7925055656644
 20
93.12629454364591
 30
0.0
 11
-238.8749989169271
 21
79.62629454364591
 31
0.0
  0
LINE
  5
128
330
72
100
AcDbEntity
  8
0
  6
Continuous
 62
     7
100
AcDbLine
 10
-247.73934227882
 20
131.0167296478258
 30
0.0
 11
-247.73934227882
 21
99.81453048446022
 31
0.0
  0
LINE
  5
129
330
72
100
AcDbEntity
  8
0
  6
Continuous
 62
     7
100
AcDbLine
 10
-176.7893422788204
 20
131.0167296478259
 30
0.0
 11
-252.1893422788197
 21
131.0167296478259
 31
0.0
  0
LINE
  5
12A
330
72
100
AcDbEntity
  8
0
  6
Continuous
 62
     7
100
AcDbLine
 10
-257.1274221911218
 20
134.2805324493138
 30
0.0
 11
-257.1274221911218
 21
134.7262945436417
 31
0.0
  0
LINE
  5
12B
330
72
100
AcDbEntity
  8
0
  6
Continuous
 62
     7
100
AcDbLine
 10
-256.2937195158673
 20
134.7431039111594
 30
0.0
 11
-256.2816698943501
 21
134.6433461918228
 31
0.0
  0
LINE
  5
12C
330
72
100
AcDbEntity
  8
0
  6
Continuous
 62
     7
100
AcDbLine
 10
-209.3397168598613
 20
140.664476816228
 30
0.0
 11
-214.390091440869
 21
137.7776590888296
 31
0.0
  0
LINE
  5
12D
330
72
100
AcDbEntity
  8
0
  6
Continuous
 62
     7
100
AcDbLine
 10
-214.4893422788182
 20
137.9512945436376
 30
0.0
 11
-209.5908519125465
 21
140.7512945436375
 31
0.0
  0
LINE
  5
12E
330
72
100
AcDbEntity
  8
0
  6
Continuous
 62
     7
100
AcDbLine
 10
-171.8512623665182
 20
134.2805324493138
 30
0.0
 11
-257.1274221911218
 21
134.2805324493138
 31
0.0
  0
LINE
  5
12F
330
72
100
AcDbEntity
  8
0
  6
Continuous
 62
     7
100
AcDbLine
 10
-256.2816698943501
 20
134.6433461918228
 30
0.0
 11
-172.696982108275
 21
134.6433448775286
 31
0.0
  0
LINE
  5
130
330
72
100
AcDbEntity
  8
0
  6
Continuous
 62
     7
100
AcDbLine
 10
-163.98934227882
 20
109.2762945436459
 30
0.0
 11
-163.98934227882
 21
93.12629454364591
 31
0.0
  0
LINE
  5
131
330
72
100
AcDbEntity
  8
0
  6
Continuous
 62
     7
100
AcDbLine
 10
-163.98934227882
 20
76.62629454364591
 30
0.0
 11
-174.48934227882
 21
76.62629454364591
 31
0.0
  0
LINE
  5
132
330
72
100
AcDbEntity
  8
0
  6
Continuous
 62
     7
100
AcDbLine
 10
-174.73934227882
 20
109.2762945436459
 30
0.0
 11
-163.98934227882
 21
109.2762945436459
 31
0.0
  0
LINE
  5
133
330
72
100
AcDbEntity
  8
0
  6
Continuous
 62
     7
100
AcDbLine
 10
-184.2879272725573
 20
79.62629454364591
 30
0.0
 11
-183.4687752282684
 21
79.62629454364591
 31
0.0
  0
LINE
  5
134
330
72
100
AcDbEntity
  8
0
  6
Continuous
 62
     7
100
AcDbLine
 10
-177.48934227882
 20
79.62629454364591
 30
0.0
 11
-183.4687752282684
 21
79.62629454364591
 31
0.0
  0
LINE
  5
135
330
72
100
AcDbEntity
  8
0
  6
Continuous
 62
     7
100
AcDbLine
 10
-183.4687752282684
 20
79.62629454364591
 30
0.0
 11
-183.4687752282684
 21
75.62629454364591
 31
0.0
  0
LINE
  5
136
330
72
100
AcDbEntity
  8
0
  6
Continuous
 62
     7
100
AcDbLine
 10
-184.2879272725573
 20
79.62629454364591
 30
0.0
 11
-184.2879272725574
 21
75.62629454364591
 31
0.0
  0
LINE
  5
137
330
72
100
AcDbEntity
  8
0
  6
Continuous
 62
     7
100
AcDbLine
 10
-174.73934227882
 20
109.2762945436459
 30
0.0
 11
-174.73934227882
 21
107.0396873721403
 31
0.0
  0
LINE
  5
138
330
72
100
AcDbEntity
  8
0
  6
Continuous
 62
     7
100
AcDbLine
 10
-174.48934227882
 20
76.62629454364591
 30
0.0
 11
-174.48934227882
 21
75.62629454364591
 31
0.0
  0
LINE
  5
139
330
72
100
AcDbEntity
  8
0
  6
Continuous
 62
     7
100
AcDbLine
 10
-174.48934227882
 20
79.62629454364591
 30
0.0
 11
-174.48934227882
 21
76.62629454364591
 31
0.0
  0
LINE
  5
13A
330
72
100
AcDbEntity
  8
0
  6
Continuous
 62
     7
100
AcDbLine
 10
-174.48934227882
 20
79.62629454364591
 30
0.0
 11
-177.48934227882
 21
79.62629454364591
 31
0.0
  0
LINE
  5
13B
330
72
100
AcDbEntity
  8
0
  6
Continuous
 62
     7
100
AcDbLine
 10
-183.4687752282684
 20
75.62629454364591
 30
0.0
 11
-184.2879272725574
 21
75.62629454364591
 31
0.0
  0
LINE
  5
13C
330
72
100
AcDbEntity
  8
0
  6
Continuous
 62
     7
100
AcDbLine
 10
-184.2879272725574
 20
75.62629454364591
 30
0.0
 11
-186.98934227882
 21
75.62629454364591
 31
0.0
  0
LINE
  5
13D
330
72
100
AcDbEntity
  8
0
  6
Continuous
 62
     7
100
AcDbLine
 10
-174.48934227882
 20
75.62629454364591
 30
0.0
 11
-177.48934227882
 21
75.62629454364591
 31
0.0
  0
LINE
  5
13E
330
72
100
AcDbEntity
  8
0
  6
Continuous
 62
     7
100
AcDbLine
 10
-177.48934227882
 20
75.62629454364591
 30
0.0
 11
-183.4687752282684
 21
75.62629454364591
 31
0.0
  0
LINE
  5
13F
330
72
100
AcDbEntity
  8
0
  6
Continuous
 62
     7
100
AcDbLine
 10
-177.48934227882
 20
79.62629454364591
 30
0.0
 11
-177.48934227882
 21
75.62629454364591
 31
0.0
  0
LINE
  5
140
330
72
100
AcDbEntity
  8
0
  6
Continuous
 62
     7
100
AcDbLine
 10
-186.98934227882
 20
76.62629454364591
 30
0.0
 11
-186.98934227882
 21
75.62629454364591
 31
0.0
  0
LINE
  5
141
330
72
100
AcDbEntity
  8
0
  6
Continuous
 62
     7
100
AcDbLine
 10
-168.73934227882
 20
116.2262945436455
 30
0.0
 11
-173.98934227882
 21
116.2262945436455
 31
0.0
  0
LINE
  5
142
330
72
100
AcDbEntity
  8
0
  6
Continuous
 62
     7
100
AcDbLine
 10
-168.73934227882
 20
116.2262945436455
 30
0.0
 11
-168.73934227882
 21
118.0262247427971
 31
0.0
  0
LINE
  5
143
330
72
100
AcDbEntity
  8
0
  6
Continuous
 62
     7
100
AcDbLine
 10
-173.98934227882
 20
116.2262945436455
 30
0.0
 11
-173.98934227882
 21
118.0262247427971
 31
0.0
  0
LINE
  5
144
330
72
100
AcDbEntity
  8
0
  6
Continuous
 62
     7
100
AcDbLine
 10
-168.73934227882
 20
118.0262247427971
 30
0.0
 11
-168.73934227882
 21
132.6051125274774
 31
0.0
  0
LINE
  5
145
330
72
100
AcDbEntity
  8
0
  6
Continuous
 62
     7
100
AcDbLine
 10
-168.73934227882
 20
118.0262247427971
 30
0.0
 11
-173.98934227882
 21
118.0262247427971
 31
0.0
  0
LINE
  5
146
330
72
100
AcDbEntity
  8
0
  6
Continuous
 62
     7
100
AcDbLine
 10
-173.98934227882
 20
125.3262945436459
 30
0.0
 11
-174.73934227882
 21
125.3262945436459
 31
0.0
  0
LINE
  5
147
330
72
100
AcDbEntity
  8
0
  6
Continuous
 62
     7
100
AcDbLine
 10
-173.98934227882
 20
120.5262945436459
 30
0.0
 11
-173.98934227882
 21
125.3262945436459
 31
0.0
  0
LINE
  5
148
330
72
100
AcDbEntity
  8
0
  6
Continuous
 62
     7
100
AcDbLine
 10
-173.98934227882
 20
125.3262945436459
 30
0.0
 11
-173.98934227882
 21
128.4056874066398
 31
0.0
  0
LINE
  5
149
330
72
100
AcDbEntity
  8
0
  6
Continuous
 62
     7
100
AcDbLine
 10
-174.73934227882
 20
125.3262945436459
 30
0.0
 11
-174.73934227882
 21
120.5262945436459
 31
0.0
  0
LINE
  5
14A
330
72
100
AcDbEntity
  8
0
  6
Continuous
 62
     7
100
AcDbLine
 10
-173.98934227882
 20
118.0262247427971
 30
0.0
 11
-173.98934227882
 21
120.5262945436459
 31
0.0
  0
LINE
  5
14B
330
72
100
AcDbEntity
  8
0
  6
Continuous
 62
     7
100
AcDbLine
 10
-173.98934227882
 20
120.5262945436459
 30
0.0
 11
-174.73934227882
 21
120.5262945436459
 31
0.0
  0
LINE
  5
14C
330
72
100
AcDbEntity
  8
0
  6
Continuous
 62
     7
100
AcDbLine
 10
-172.6869682250906
 20
134.7262945436417
 30
0.0
 11
-171.8512623665182
 21
134.7262945436417
 31
0.0
  0
LINE
  5
14D
330
72
100
AcDbEntity
  8
0
  6
Continuous
 62
     7
100
AcDbLine
 10
-172.696982108275
 20
134.6433448775286
 30
0.0
 11
-172.6849324876216
 21
134.7431025968488
 31
0.0
  0
LINE
  5
14E
330
72
100
AcDbEntity
  8
0
  6
Continuous
 62
     7
100
AcDbLine
 10
-174.3360462892071
 20
134.8770760985782
 30
0.0
 11
-174.3720576504054
 21
134.7792613385048
 31
0.0
  0
LINE
  5
14F
330
72
100
AcDbEntity
  8
0
  6
Continuous
 62
     7
100
AcDbLine
 10
-175.9980362246825
 20
135.0484461981397
 30
0.0
 11
-175.9387965981375
 21
135.1424154602187
 31
0.0
  0
LINE
  5
150
330
72
100
AcDbEntity
  8
0
  6
Continuous
 62
     7
100
AcDbLine
 10
-177.46198770275
 20
135.5339561529146
 30
0.0
 11
-177.5433025626956
 21
135.4456613936288
 31
0.0
  0
LINE
  5
151
330
72
100
AcDbEntity
  8
0
  6
Continuous
 62
     7
100
AcDbLine
 10
-171.8512623665182
 20
134.2805324493138
 30
0.0
 11
-171.8512623665182
 21
134.7262945436417
 31
0.0
  0
LINE
  5
152
330
72
100
AcDbEntity
  8
0
  6
Continuous
 62
     7
100
AcDbLine
 10
-168.73934227882
 20
132.6051125274774
 30
0.0
 11
-171.8512623665182
 21
134.2805324493138
 31
0.0
  0
LINE
  5
153
330
72
100
AcDbEntity
  8
0
  6
Continuous
 62
     7
100
AcDbLine
 10
-168.73934227882
 20
132.6051125274774
 30
0.0
 11
-168.73934227882
 21
148.6262945436444
 31
0.0
  0
LINE
  5
154
330
72
100
AcDbEntity
  8
0
  6
Continuous
 62
     7
100
AcDbLine
 10
-174.73934227882
 20
130.183469031996
 30
0.0
 11
-174.73934227882
 21
125.3262945436459
 31
0.0
  0
LINE
  5
155
330
72
100
AcDbEntity
  8
0
  6
Continuous
 62
     7
100
AcDbLine
 10
-181.2393422788202
 20
131.0167296478258
 30
0.0
 11
-181.2393422788202
 21
99.81453048446022
 31
0.0
  0
LINE
  5
156
330
72
100
AcDbEntity
  8
0
  6
Continuous
 62
     7
100
AcDbLine
 10
-190.1861789919758
 20
93.12629454364591
 30
0.0
 11
-163.98934227882
 21
93.12629454364591
 31
0.0
  0
LINE
  5
157
330
72
100
AcDbEntity
  8
0
  6
Continuous
 62
     7
100
AcDbLine
 10
-163.98934227882
 20
93.12629454364591
 30
0.0
 11
-163.98934227882
 21
76.62629454364591
 31
0.0
  0
LINE
  5
158
330
72
100
AcDbEntity
  8
0
  6
Continuous
 62
     7
100
AcDbLine
 10
-221.98934227882
 20
142.8418317873094
 30
0.0
 11
-221.98934227882
 21
143.7894135042656
 31
0.0
  0
LINE
  5
159
330
72
100
AcDbEntity
  8
0
  6
Continuous
 62
     7
100
AcDbLine
 10
-260.2393422788201
 20
148.6262945436444
 30
0.0
 11
-260.2393422788201
 21
132.6051125274774
 31
0.0
  0
LINE
  5
15A
330
72
100
AcDbEntity
  8
0
  6
Continuous
 62
     7
100
AcDbLine
 10
-245.1872627437874
 20
142.8418317873094
 30
0.0
 11
-245.3578364501779
 21
142.8244669695427
 31
0.0
  0
LINE
  5
15B
330
72
100
AcDbEntity
  8
0
  6
Continuous
 62
     7
100
AcDbLine
 10
-245.1835522075529
 20
141.8671055453322
 30
0.0
 11
-245.0103997324949
 21
141.8697192322914
 31
0.0
  0
LINE
  5
15C
330
72
100
AcDbEntity
  8
0
  6
Continuous
 62
     7
100
AcDbLine
 10
-221.98934227882
 20
141.8705910205583
 30
0.0
 11
-245.0103997324949
 21
141.8697192322914
 31
0.0
  0
LINE
  5
15D
330
72
100
AcDbEntity
  8
0
  6
Continuous
 62
     7
100
AcDbLine
 10
-245.1872627437874
 20
142.8418317873094
 30
0.0
 11
-221.98934227882
 21
142.8418317873094
 31
0.0
  0
LINE
  5
15E
330
72
100
AcDbEntity
  8
0
  6
Continuous
 62
     7
100
AcDbLine
 10
-245.0694850269989
 20
140.8945953007673
 30
0.0
 11
-245.2417412722006
 21
140.905048147094
 31
0.0
  0
LINE
  5
15F
330
72
100
AcDbEntity
  8
0
  6
Continuous
 62
     7
100
AcDbLine
 10
-221.98934227882
 20
142.8244669695427
 30
0.0
 11
-221.98934227882
 21
142.8418317873094
 31
0.0
  0
LINE
  5
160
330
72
100
AcDbEntity
  8
0
  6
Continuous
 62
     7
100
AcDbLine
 10
-221.98934227882
 20
140.8945953007673
 30
0.0
 11
-221.98934227882
 21
141.8705910205583
 31
0.0
  0
LINE
  5
161
330
72
100
AcDbEntity
  8
0
  6
Continuous
 62
     7
100
AcDbLine
 10
-221.98934227882
 20
142.8244669695427
 30
0.0
 11
-221.98934227882
 21
141.8705910205583
 31
0.0
  0
LINE
  5
162
330
72
100
AcDbEntity
  8
0
  6
Continuous
 62
     7
100
AcDbLine
 10
-221.98934227882
 20
140.8945953007673
 30
0.0
 11
-221.98934227882
 21
139.957033464005
 31
0.0
  0
LINE
  5
163
330
72
100
AcDbEntity
  8
0
  6
Continuous
 62
     7
100
AcDbLine
 10
-215.8893422788202
 20
139.5578020303374
 30
0.0
 11
-214.5893977881433
 21
138.814764270564
 31
0.0
  0
LINE
  5
164
330
72
100
AcDbEntity
  8
0
  6
Continuous
 62
     7
100
AcDbLine
 10
-214.7892867695167
 20
138.4682900361317
 30
0.0
 11
-216.0892312602171
 21
139.2113277959183
 31
0.0
  0
LINE
  5
165
330
72
100
AcDbEntity
  8
0
  6
Continuous
 62
     7
100
AcDbLine
 10
-214.5885914465136
 20
137.7776581341176
 30
0.0
 11
-219.6389109055217
 21
140.6643799009882
 31
0.0
  0
LINE
  5
166
330
72
100
AcDbEntity
  8
0
  6
Continuous
 62
     7
100
AcDbLine
 10
-216.6893422788203
 20
141.6035578714043
 30
0.0
 11
-216.6893422788203
 21
139.8990312158777
 31
0.0
  0
LINE
  5
167
330
72
100
AcDbEntity
  8
0
  6
Continuous
 62
     7
100
AcDbLine
 10
-217.0893422788202
 20
139.8990312158772
 30
0.0
 11
-217.0893422788202
 21
141.6035578714047
 31
0.0
  0
LINE
  5
168
330
72
100
AcDbEntity
  8
0
  6
Continuous
 62
     7
100
AcDbLine
 10
-215.8893422788202
 20
142.0650963329427
 30
0.0
 11
-215.8893422788202
 21
139.5578020303374
 31
0.0
  0
LINE
  5
169
330
72
100
AcDbEntity
  8
0
  6
Continuous
 62
     7
100
AcDbLine
 10
-216.2893422788203
 20
139.5578020303372
 30
0.0
 11
-216.2893422788203
 21
142.0650963329441
 31
0.0
  0
LINE
  5
16A
330
72
100
AcDbEntity
  8
0
  6
Continuous
 62
     7
100
AcDbLine
 10
-214.4893422788183
 20
143.5512945436376
 30
0.0
 11
-219.3879420148615
 21
140.7512945436376
 31
0.0
  0
LINE
  5
16B
330
72
100
AcDbEntity
  8
0
  6
Continuous
 62
     7
100
AcDbLine
 10
-219.6389109055292
 20
140.8382091862849
 30
0.0
 11
-214.5885914465045
 21
143.7249309531696
 31
0.0
  0
LINE
  5
16C
330
72
100
AcDbEntity
  8
0
  6
Continuous
 62
     7
100
AcDbLine
 10
-219.3879420148615
 20
140.7512945436376
 30
0.0
 11
-214.4893422788182
 21
137.9512945436376
 31
0.0
  0
LINE
  5
16D
330
72
100
AcDbEntity
  8
0
  6
Continuous
 62
     7
100
AcDbLine
 10
-260.2393422788201
 20
132.6051125274774
 30
0.0
 11
-257.1274221911218
 21
134.2805324493138
 31
0.0
  0
LINE
  5
16E
330
72
100
AcDbEntity
  8
0
  6
Continuous
 62
     7
100
AcDbLine
 10
-221.98934227882
 20
142.8244669695427
 30
0.0
 11
-245.3578364501779
 21
142.8244669695427
 31
0.0
  0
LINE
  5
16F
330
72
100
AcDbEntity
  8
0
  6
Continuous
 62
     7
100
AcDbLine
 10
-214.5759448192008
 20
140.8824509118199
 30
0.0
 11
-215.089342278822
 21
141.7716813963563
 31
0.0
  0
LINE
  5
170
330
72
100
AcDbEntity
  8
0
  6
Continuous
 62
     7
100
AcDbLine
 10
-215.089342278822
 20
139.8990312158738
 30
0.0
 11
-215.089342278822
 21
141.7716813963563
 31
0.0
  0
LINE
  5
171
330
72
100
AcDbEntity
  8
0
  6
Continuous
 62
     7
100
AcDbLine
 10
-215.4893422788203
 20
139.8990312158777
 30
0.0
 11
-215.4893422788202
 21
142.518091557871
 31
0.0
  0
LINE
  5
172
330
72
100
AcDbEntity
  8
0
  6
Continuous
 62
     7
100
AcDbLine
 10
-215.1161371980676
 20
142.6180915578743
 30
0.0
 11
-214.4893422788223
 21
141.5324509118153
 31
0.0
  0
LINE
  5
173
330
72
100
AcDbEntity
  8
0
  6
Continuous
 62
     7
100
AcDbLine
 10
-213.8625473597585
 20
142.6180915575574
 30
0.0
 11
-214.4893422788223
 21
141.5324509118153
 31
0.0
  0
LINE
  5
174
330
72
100
AcDbEntity
  8
0
  6
Continuous
 62
     7
100
AcDbLine
 10
-213.0893422788202
 20
139.4417812704223
 30
0.0
 11
-213.0893422788202
 21
142.0608078168596
 31
0.0
  0
LINE
  5
175
330
72
100
AcDbEntity
  8
0
  6
Continuous
 62
     7
100
AcDbLine
 10
-213.8893422788202
 20
138.9844975294095
 30
0.0
 11
-213.8893422788202
 21
141.7716813963576
 31
0.0
  0
LINE
  5
176
330
72
100
AcDbEntity
  8
0
  6
Continuous
 62
     7
100
AcDbLine
 10
-213.4893422788203
 20
142.5180915578719
 30
0.0
 11
-213.4893422788203
 21
138.98449752941
 31
0.0
  0
LINE
  5
177
330
72
100
AcDbEntity
  8
0
  6
Continuous
 62
     7
100
AcDbLine
 10
-206.98934227882
 20
139.9570334640032
 30
0.0
 11
-206.98934227882
 21
140.9050481470941
 31
0.0
  0
LINE
  5
178
330
72
100
AcDbEntity
  8
0
  6
Continuous
 62
     7
100
AcDbLine
 10
-212.7893977881211
 20
142.2340449340685
 30
0.0
 11
-211.9893977881302
 21
141.7767611930617
 31
0.0
  0
LINE
  5
179
330
72
100
AcDbEntity
  8
0
  6
Continuous
 62
     7
100
AcDbLine
 10
-212.6893422788222
 20
141.7161210261436
 30
0.0
 11
-212.189286768667
 21
141.4302869581467
 31
0.0
  0
LINE
  5
17A
330
72
100
AcDbEntity
  8
0
  6
Continuous
 62
     7
100
AcDbLine
 10
-212.6893422788222
 20
140.9512945436411
 30
0.0
 11
-212.6893422788222
 21
141.7161210261436
 31
0.0
  0
LINE
  5
17B
330
72
100
AcDbEntity
  8
0
  6
Continuous
 62
     7
100
AcDbLine
 10
-212.0893422788202
 20
140.951294543641
 30
0.0
 11
-212.6893422788222
 21
140.9512945436411
 31
0.0
  0
LINE
  5
17C
330
72
100
AcDbEntity
  8
0
  6
Continuous
 62
     7
100
AcDbLine
 10
-214.4027397384416
 20
140.8824509118164
 30
0.0
 11
-213.8893422788202
 21
141.7716813963576
 31
0.0
  0
LINE
  5
17D
330
72
100
AcDbEntity
  8
0
  6
Continuous
 62
     7
100
AcDbLine
 10
-209.5908519125465
 20
140.7512945436375
 30
0.0
 11
-214.4893422788183
 21
143.5512945436376
 31
0.0
  0
LINE
  5
17E
330
72
100
AcDbEntity
  8
0
  6
Continuous
 62
     7
100
AcDbLine
 10
-214.390091440881
 20
143.7249299984547
 30
0.0
 11
-209.3397168598516
 21
140.8381122710483
 31
0.0
  0
LINE
  5
17F
330
72
100
AcDbEntity
  8
0
  6
Continuous
 62
     7
100
AcDbLine
 10
-191.2014799223798
 20
76.62629454364591
 30
0.0
 11
-237.7772046352602
 21
76.62629454364591
 31
0.0
  0
LINE
  5
180
330
72
100
AcDbEntity
  8
0
  6
Continuous
 62
     7
100
AcDbLine
 10
-206.98934227882
 20
143.7894135042656
 30
0.0
 11
-206.98934227882
 21
144.126294543641
 31
0.0
  0
LINE
  5
181
330
72
100
AcDbEntity
  8
0
  6
Continuous
 62
     7
100
AcDbLine
 10
-221.98934227882
 20
144.126294543641
 30
0.0
 11
-206.98934227882
 21
144.126294543641
 31
0.0
  0
LINE
  5
182
330
72
100
AcDbEntity
  8
0
  6
Continuous
 62
     7
100
AcDbLine
 10
-221.98934227882
 20
144.126294543641
 30
0.0
 11
-221.98934227882
 21
143.7894135042656
 31
0.0
  0
LINE
  5
183
330
72
100
AcDbEntity
  8
0
  6
Continuous
 62
     7
100
AcDbLine
 10
-221.98934227882
 20
143.7894135042656
 30
0.0
 11
-245.596474741473
 21
143.7894135042656
 31
0.0
  0
LINE
  5
184
330
72
100
AcDbEntity
  8
0
  6
Continuous
 62
     7
100
AcDbLine
 10
-183.3822098161669
 20
143.7894135042655
 30
0.0
 11
-183.2174819954576
 21
143.7585118048281
 31
0.0
  0
LINE
  5
185
330
72
100
AcDbEntity
  8
0
  6
Continuous
 62
     7
100
AcDbLine
 10
-245.596474741473
 20
143.7894135042656
 30
0.0
 11
-245.7612025621824
 21
143.7585118048281
 31
0.0
  0
LINE
  5
186
330
72
100
AcDbEntity
  8
0
  6
Continuous
 62
     7
100
AcDbLine
 10
-182.5928853472592
 20
144.6510554564856
 30
0.0
 11
-246.3857992103807
 21
144.6510554564857
 31
0.0
  0
LINE
  5
187
330
72
100
AcDbEntity
  8
0
  6
Continuous
 62
     7
100
AcDbLine
 10
-183.3822098161669
 20
143.7894135042655
 30
0.0
 11
-206.98934227882
 21
143.7894135042656
 31
0.0
  0
LINE
  5
188
330
72
100
AcDbEntity
  8
0
  6
Continuous
 62
     7
100
AcDbLine
 10
-212.6893422788201
 20
140.551294543641
 30
0.0
 11
-212.6893422788203
 21
139.786469903574
 31
0.0
  0
LINE
  5
189
330
72
100
AcDbEntity
  8
0
  6
Continuous
 62
     7
100
AcDbLine
 10
-212.6893422788201
 20
140.551294543641
 30
0.0
 11
-212.0893422788202
 21
140.551294543641
 31
0.0
  0
LINE
  5
18A
330
72
100
AcDbEntity
  8
0
  6
Continuous
 62
     7
100
AcDbLine
 10
-178.9777798128897
 20
135.9631755830165
 30
0.0
 11
-178.8759724207988
 21
136.044077282454
 31
0.0
  0
LINE
  5
18B
330
72
100
AcDbEntity
  8
0
  6
Continuous
 62
     7
100
AcDbLine
 10
-180.1532291481301
 20
136.6628499213045
 30
0.0
 11
-180.273547507284
 21
136.5909159412706
 31
0.0
  0
LINE
  5
18C
330
72
100
AcDbEntity
  8
0
  6
Continuous
 62
     7
100
AcDbLine
 10
-181.4053850016204
 20
137.3166642163614
 30
0.0
 11
-181.2688975354047
 21
137.378230363894
 31
0.0
  0
LINE
  5
18D
330
72
100
AcDbEntity
  8
0
  6
Continuous
 62
     7
100
AcDbLine
 10
-206.98934227882
 20
137.3166642163614
 30
0.0
 11
-206.98934227882
 21
137.6762945436418
 31
0.0
  0
LINE
  5
18E
330
72
100
AcDbEntity
  8
0
  6
Continuous
 62
     7
100
AcDbLine
 10
-206.98934227882
 20
137.6762945436418
 30
0.0
 11
-206.98934227882
 21
138.1262945436409
 31
0.0
  0
LINE
  5
18F
330
72
100
AcDbEntity
  8
0
  6
Continuous
 62
     7
100
AcDbLine
 10
-182.201262366518
 20
138.1762945436409
 30
0.0
 11
-182.3512623665182
 21
138.126294543641
 31
0.0
  0
LINE
  5
190
330
72
100
AcDbEntity
  8
0
  6
Continuous
 62
     7
100
AcDbLine
 10
-206.98934227882
 20
138.1262945436409
 30
0.0
 11
-206.98934227882
 21
138.1762945436412
 31
0.0
  0
LINE
  5
191
330
72
100
AcDbEntity
  8
0
  6
Continuous
 62
     7
100
AcDbLine
 10
-206.98934227882
 20
138.1762945436412
 30
0.0
 11
-206.98934227882
 21
139.0040483897295
 31
0.0
  0
LINE
  5
192
330
72
100
AcDbEntity
  8
0
  6
Continuous
 62
     7
100
AcDbLine
 10
-182.932176220582
 20
139.041509049071
 30
0.0
 11
-183.0927691749888
 21
139.0040483897294
 31
0.0
  0
LINE
  5
193
330
72
100
AcDbEntity
  8
0
  6
Continuous
 62
     7
100
AcDbLine
 10
-206.98934227882
 20
139.0040483897295
 30
0.0
 11
-206.98934227882
 21
139.9328412744432
 31
0.0
  0
LINE
  5
194
330
72
100
AcDbEntity
  8
0
  6
Continuous
 62
     7
100
AcDbLine
 10
-206.98934227882
 20
139.9570334640032
 30
0.0
 11
-206.98934227882
 21
139.9328412744432
 31
0.0
  0
LINE
  5
195
330
72
100
AcDbEntity
  8
0
  6
Continuous
 62
     7
100
AcDbLine
 10
-183.6154728404569
 20
139.9328412744432
 30
0.0
 11
-183.4474126908291
 21
139.9570334640032
 31
0.0
  0
LINE
  5
196
330
72
100
AcDbEntity
  8
0
  6
Continuous
 62
     7
100
AcDbLine
 10
-206.98934227882
 20
140.9050481470941
 30
0.0
 11
-183.9091995306411
 21
140.8945953007673
 31
0.0
  0
LINE
  5
197
330
72
100
AcDbEntity
  8
0
  6
Continuous
 62
     7
100
AcDbLine
 10
-183.6154728404569
 20
139.9328412744432
 30
0.0
 11
-206.98934227882
 21
139.9328412744432
 31
0.0
  0
LINE
  5
198
330
72
100
AcDbEntity
  8
0
  6
Continuous
 62
     7
100
AcDbLine
 10
-206.98934227882
 20
139.9570334640032
 30
0.0
 11
-183.4474126908291
 21
139.9570334640032
 31
0.0
  0
LINE
  5
199
330
72
100
AcDbEntity
  8
0
  6
Continuous
 62
     7
100
AcDbLine
 10
-206.98934227882
 20
139.0040483897295
 30
0.0
 11
-183.0927691749888
 21
139.0040483897294
 31
0.0
  0
LINE
  5
19A
330
72
100
AcDbEntity
  8
0
  6
Continuous
 62
     7
100
AcDbLine
 10
-182.3512623665182
 20
138.126294543641
 30
0.0
 11
-206.98934227882
 21
138.1262945436409
 31
0.0
  0
LINE
  5
19B
330
72
100
AcDbEntity
  8
0
  6
Continuous
 62
     7
100
AcDbLine
 10
-206.98934227882
 20
138.1762945436412
 30
0.0
 11
-182.201262366518
 21
138.1762945436409
 31
0.0
  0
LINE
  5
19C
330
72
100
AcDbEntity
  8
0
  6
Continuous
 62
     7
100
AcDbLine
 10
-206.98934227882
 20
137.3166642163614
 30
0.0
 11
-181.4053850016204
 21
137.3166642163614
 31
0.0
  0
LINE
  5
19D
330
72
100
AcDbEntity
  8
0
  6
Continuous
 62
     7
100
AcDbLine
 10
-212.6893422788203
 20
139.786469903574
 30
0.0
 11
-212.1892867703653
 21
140.0722683325988
 31
0.0
  0
LINE
  5
19E
330
72
100
AcDbEntity
  8
0
  6
Continuous
 62
     7
100
AcDbLine
 10
-211.9893977881249
 20
139.7257940986665
 30
0.0
 11
-212.7893977881303
 21
139.2685441532081
 31
0.0
  0
LINE
  5
19F
330
72
100
AcDbEntity
  8
0
  6
Continuous
 62
     7
100
AcDbLine
 10
-174.3720576504054
 20
134.7792613385048
 30
0.0
 11
-254.6066269072344
 21
134.7792613385048
 31
0.0
  0
LINE
  5
1A0
330
72
100
AcDbEntity
  8
0
  6
Continuous
 62
     7
100
AcDbLine
 10
-221.98934227882
 20
137.3166642163649
 30
0.0
 11
-221.98934227882
 21
137.6762945436417
 31
0.0
  0
LINE
  5
1A1
330
72
100
AcDbEntity
  8
0
  6
Continuous
 62
     7
100
AcDbLine
 10
-248.8254554095089
 20
136.6628499213039
 30
0.0
 11
-180.1532291481301
 21
136.6628499213045
 31
0.0
  0
LINE
  5
1A2
330
72
100
AcDbEntity
  8
0
  6
Continuous
 62
     7
100
AcDbLine
 10
-207.28934227882
 20
137.3762945436416
 30
0.0
 11
-221.68934227882
 21
137.3762945436416
 31
0.0
  0
LINE
  5
1A3
330
72
100
AcDbEntity
  8
0
  6
Continuous
 62
     7
100
AcDbLine
 10
-247.5732995560196
 20
137.3166642163615
 30
0.0
 11
-221.98934227882
 21
137.3166642163649
 31
0.0
  0
LINE
  5
1A4
330
72
100
AcDbEntity
  8
0
  6
Continuous
 62
     7
100
AcDbLine
 10
-177.5433025626956
 20
135.4456613936288
 30
0.0
 11
-251.4353819949444
 21
135.4456613936288
 31
0.0
  0
LINE
  5
1A5
330
72
100
AcDbEntity
  8
0
  6
Continuous
 62
     7
100
AcDbLine
 10
-254.6426382684329
 20
134.8770760985782
 30
0.0
 11
-254.6066269072344
 21
134.7792613385048
 31
0.0
  0
LINE
  5
1A6
330
72
100
AcDbEntity
  8
0
  6
Continuous
 62
     7
100
AcDbLine
 10
-257.1274221911218
 20
134.7262945436417
 30
0.0
 11
-256.2917163325492
 21
134.7262945436417
 31
0.0
  0
LINE
  5
1A7
330
72
100
AcDbEntity
  8
0
  6
Continuous
 62
     7
100
AcDbLine
 10
-254.6426382684329
 20
134.8770760985782
 30
0.0
 11
-174.3360462892071
 21
134.8770760985782
 31
0.0
  0
LINE
  5
1A8
330
72
100
AcDbEntity
  8
0
  6
Continuous
 62
     7
100
AcDbLine
 10
-252.9806483329575
 20
135.04844619814
 30
0.0
 11
-175.9980362246825
 21
135.0484461981397
 31
0.0
  0
LINE
  5
1A9
330
72
100
AcDbEntity
  8
0
  6
Continuous
 62
     7
100
AcDbLine
 10
-180.273547507284
 20
136.5909159412706
 30
0.0
 11
-248.7051370503556
 21
136.5909159412704
 31
0.0
  0
LINE
  5
1AA
330
72
100
AcDbEntity
  8
0
  6
Continuous
 62
     7
100
AcDbLine
 10
-251.5166968548897
 20
135.5339561529147
 30
0.0
 11
-251.4353819949444
 21
135.4456613936288
 31
0.0
  0
LINE
  5
1AB
330
72
100
AcDbEntity
  8
0
  6
Continuous
 62
     7
100
AcDbLine
 10
-252.9806483329575
 20
135.04844619814
 30
0.0
 11
-253.0398879595027
 21
135.1424154602186
 31
0.0
  0
LINE
  5
1AC
330
72
100
AcDbEntity
  8
0
  6
Continuous
 62
     7
100
AcDbLine
 10
-251.5166968548897
 20
135.5339561529147
 30
0.0
 11
-177.46198770275
 21
135.5339561529146
 31
0.0
  0
LINE
  5
1AD
330
72
100
AcDbEntity
  8
0
  6
Continuous
 62
     7
100
AcDbLine
 10
-250.0009047447502
 20
135.9631755830166
 30
0.0
 11
-178.9777798128897
 21
135.9631755830165
 31
0.0
  0
LINE
  5
1AE
330
72
100
AcDbEntity
  8
0
  6
Continuous
 62
     7
100
AcDbLine
 10
-221.98934227882
 20
137.6762945436417
 30
0.0
 11
-221.98934227882
 21
138.1262945436409
 31
0.0
  0
LINE
  5
1AF
330
72
100
AcDbEntity
  8
0
  6
Continuous
 62
     7
100
AcDbLine
 10
-221.98934227882
 20
138.1262945436409
 30
0.0
 11
-246.6274221911217
 21
138.1262945436409
 31
0.0
  0
LINE
  5
1B0
330
72
100
AcDbEntity
  8
0
  6
Continuous
 62
     7
100
AcDbLine
 10
-221.98934227882
 20
139.0040483897295
 30
0.0
 11
-221.98934227882
 21
139.9328412744432
 31
0.0
  0
LINE
  5
1B1
330
72
100
AcDbEntity
  8
0
  6
Continuous
 62
     7
100
AcDbLine
 10
-221.98934227882
 20
139.9328412744432
 30
0.0
 11
-221.98934227882
 21
139.957033464005
 31
0.0
  0
LINE
  5
1B2
330
72
100
AcDbEntity
  8
0
  6
Continuous
 62
     7
100
AcDbLine
 10
-221.98934227882
 20
139.9328412744432
 30
0.0
 11
-245.363211717183
 21
139.9328412744432
 31
0.0
  0
LINE
  5
1B3
330
72
100
AcDbEntity
  8
0
  6
Continuous
 62
     7
100
AcDbLine
 10
-221.98934227882
 20
138.1262945436409
 30
0.0
 11
-221.98934227882
 21
138.1762945436409
 31
0.0
  0
LINE
  5
1B4
330
72
100
AcDbEntity
  8
0
  6
Continuous
 62
     7
100
AcDbLine
 10
-221.98934227882
 20
139.0040483897295
 30
0.0
 11
-221.98934227882
 21
138.1762945436409
 31
0.0
  0
LINE
  5
1B5
330
72
100
AcDbEntity
  8
0
  6
Continuous
 62
     7
100
AcDbLine
 10
-245.5312718668107
 20
139.9570334640032
 30
0.0
 11
-221.98934227882
 21
139.957033464005
 31
0.0
  0
LINE
  5
1B6
330
72
100
AcDbEntity
  8
0
  6
Continuous
 62
     7
100
AcDbLine
 10
-245.0694850269989
 20
140.8945953007673
 30
0.0
 11
-221.98934227882
 21
140.8945953007673
 31
0.0
  0
LINE
  5
1B7
330
72
100
AcDbEntity
  8
0
  6
Continuous
 62
     7
100
AcDbLine
 10
-248.8254554095089
 20
136.6628499213039
 30
0.0
 11
-248.7051370503556
 21
136.5909159412704
 31
0.0
  0
LINE
  5
1B8
330
72
100
AcDbEntity
  8
0
  6
Continuous
 62
     7
100
AcDbLine
 10
-250.0009047447502
 20
135.9631755830166
 30
0.0
 11
-250.1027121368412
 21
136.044077282454
 31
0.0
  0
LINE
  5
1B9
330
72
100
AcDbEntity
  8
0
  6
Continuous
 62
     7
100
AcDbLine
 10
-247.7097870222355
 20
137.3782303638941
 30
0.0
 11
-247.5732995560196
 21
137.3166642163615
 31
0.0
  0
LINE
  5
1BA
330
72
100
AcDbEntity
  8
0
  6
Continuous
 62
     7
100
AcDbLine
 10
-246.7774221911219
 20
138.1762945436409
 30
0.0
 11
-246.6274221911217
 21
138.1262945436409
 31
0.0
  0
LINE
  5
1BB
330
72
100
AcDbEntity
  8
0
  6
Continuous
 62
     7
100
AcDbLine
 10
-245.8859153826512
 20
139.0040483897295
 30
0.0
 11
-246.0465083370579
 21
139.0415090490711
 31
0.0
  0
LINE
  5
1BC
330
72
100
AcDbEntity
  8
0
  6
Continuous
 62
     7
100
AcDbLine
 10
-245.5312718668107
 20
139.9570334640032
 30
0.0
 11
-245.363211717183
 21
139.9328412744432
 31
0.0
  0
LINE
  5
1BD
330
72
100
AcDbEntity
  8
0
  6
Continuous
 62
     7
100
AcDbLine
 10
-245.8859153826512
 20
139.0040483897295
 30
0.0
 11
-221.98934227882
 21
139.0040483897295
 31
0.0
  0
LINE
  5
1BE
330
72
100
AcDbEntity
  8
0
  6
Continuous
 62
     7
100
AcDbLine
 10
-246.7774221911219
 20
138.1762945436409
 30
0.0
 11
-221.98934227882
 21
138.1762945436409
 31
0.0
  0
ARC
  5
1BF
330
72
100
AcDbEntity
  8
1
  6
DASHED
 62
     7
100
AcDbCircle
 10
-76.98934219291046
 20
122.9262945436459
 30
0.0
 40
35.8
100
AcDbArc
 50
0.0
 51
15.72078857217713
  0
ARC
  5
1C0
330
72
100
AcDbEntity
  8
1
  6
DASHED
 62
     7
100
AcDbCircle
 10
-76.98934219291046
 20
122.9262945436459
 30
0.0
 40
35.8
100
AcDbArc
 50
345.8678761798099
 51
0.0
  0
ARC
  5
1C1
330
72
100
AcDbEntity
  8
1
  6
DASHED
 62
     7
100
AcDbCircle
 10
-76.98934219291046
 20
122.9262945436459
 30
0.0
 40
35.80000000000001
100
AcDbArc
 50
15.72078857217713
 51
53.43115702758984
  0
ARC
  5
1C2
330
72
100
AcDbEntity
  8
0
  6
Continuous
 62
     7
100
AcDbCircle
 10
-54.98934219290904
 20
141.6262945436417
 30
0.0
 40
6.900000000000006
100
AcDbArc
 50
269.9999999999935
 51
274.0001564510641
  0
ARC
  5
1C3
330
72
100
AcDbEntity
  8
0
  6
Continuous
 62
     7
100
AcDbCircle
 10
-76.98934192612872
 20
93.1262945436458
 30
0.0
 40
16.14999999999998
100
AcDbArc
 50
0.0000000000004
 51
24.46468241657306
  0
ARC
  5
1C4
330
72
100
AcDbEntity
  8
0
  6
Continuous
 62
     7
100
AcDbCircle
 10
-76.98934219290824
 20
139.2262945436464
 30
0.0
 40
1.5
100
AcDbArc
 50
359.9999999999891
 51
90.0
  0
ARC
  5
1C5
330
72
100
AcDbEntity
  8
0
  6
Continuous
 62
     7
100
AcDbCircle
 10
-54.98934219290904
 20
141.6262945436417
 30
0.0
 40
6.900000000000009
100
AcDbArc
 50
17.9999999999934
 51
25.99999999999389
  0
ARC
  5
1C6
330
72
100
AcDbEntity
  8
0
  6
Continuous
 62
     7
100
AcDbCircle
 10
-54.98934219290904
 20
141.6262945436417
 30
0.0
 40
7.000000000000064
100
AcDbArc
 50
1.99285998194812
 51
9.9999999999931
  0
ARC
  5
1C7
330
72
100
AcDbEntity
  8
0
  6
Continuous
 62
     7
100
AcDbCircle
 10
-54.98934219290904
 20
141.6262945436417
 30
0.0
 40
7.000000000000006
100
AcDbArc
 50
9.9999999999931
 51
17.99999999999353
  0
ARC
  5
1C8
330
72
100
AcDbEntity
  8
0
  6
Continuous
 62
     7
100
AcDbCircle
 10
-54.98934219290904
 20
141.6262945436417
 30
0.0
 40
7.00000000000009
100
AcDbArc
 50
353.9999999999932
 51
1.99285998194812
  0
ARC
  5
1C9
330
72
100
AcDbEntity
  8
0
  6
Continuous
 62
     7
100
AcDbCircle
 10
-54.98934219290904
 20
141.6262945436417
 30
0.0
 40
6.899999999999985
100
AcDbArc
 50
2.00003717724398
 51
9.99999999999296
  0
ARC
  5
1CA
330
72
100
AcDbEntity
  8
0
  6
Continuous
 62
     7
100
AcDbCircle
 10
-54.98934219290904
 20
141.6262945436417
 30
0.0
 40
6.900000000000011
100
AcDbArc
 50
345.9999999999931
 51
353.9999999999924
  0
ARC
  5
1CB
330
72
100
AcDbEntity
  8
0
  6
Continuous
 62
     7
100
AcDbCircle
 10
-54.98934219290904
 20
141.6262945436417
 30
0.0
 40
7.000000000000093
100
AcDbArc
 50
25.99999999999362
 51
33.99999999999339
  0
ARC
  5
1CC
330
72
100
AcDbEntity
  8
0
  6
Continuous
 62
     7
100
AcDbCircle
 10
-72.98934219290892
 20
135.9262945436454
 30
0.0
 40
7.09999999999756
100
AcDbArc
 50
313.0
 51
89.99999999999358
  0
ARC
  5
1CD
330
72
100
AcDbEntity
  8
0
  6
Continuous
 62
     7
100
AcDbCircle
 10
-71.98934219290841
 20
135.9262945436439
 30
0.0
 40
10.19999999999868
100
AcDbArc
 50
313.000000000003
 51
89.99999999999329
  0
ARC
  5
1CE
330
72
100
AcDbEntity
  8
0
  6
Continuous
 62
     7
100
AcDbCircle
 10
-76.98934219291046
 20
122.9262945436459
 30
0.0
 40
6.6999999999998
100
AcDbArc
 50
5.2441821451066
 51
40.25905921400264
  0
ARC
  5
1CF
330
72
100
AcDbEntity
  8
0
  6
Continuous
 62
     7
100
AcDbCircle
 10
-76.98934192612872
 20
93.1262945436458
 30
0.0
 40
16.15
100
AcDbArc
 50
24.46468241657306
 51
59.48659492952776
  0
ARC
  5
1D0
330
72
100
AcDbEntity
  8
0
  6
Continuous
 62
     7
100
AcDbCircle
 10
-76.98934192612872
 20
93.1262945436458
 30
0.0
 40
16.1500000000001
100
AcDbArc
 50
155.5353175834267
 51
180.0
  0
ARC
  5
1D1
330
72
100
AcDbEntity
  8
0
  6
Continuous
 62
     7
100
AcDbCircle
 10
-80.00340441129721
 20
143.7209991907047
 30
0.0
 40
3.000000000000041
100
AcDbArc
 50
227.4649206658579
 51
266.5952254413281
  0
ARC
  5
1D2
330
72
100
AcDbEntity
  8
0
  6
Continuous
 62
     7
100
AcDbCircle
 10
-78.98934219290801
 20
144.8262945436469
 30
0.0
 40
4.500000000000036
100
AcDbArc
 50
203.5781784785157
 51
227.4649206658577
  0
ARC
  5
1D3
330
72
100
AcDbEntity
  8
0
  6
Continuous
 62
     7
100
AcDbCircle
 10
-76.98934192612872
 20
93.1262945436458
 30
0.0
 40
16.1500000000001
100
AcDbArc
 50
120.5134050704724
 51
155.5353175834267
  0
ARC
  5
1D4
330
72
100
AcDbEntity
  8
0
  6
Continuous
 62
     7
100
AcDbCircle
 10
-76.98934192612872
 20
93.1262945436458
 30
0.0
 40
16.15000000000007
100
AcDbArc
 50
59.48659492952776
 51
120.5134050704724
  0
ARC
  5
1D5
330
72
100
AcDbEntity
  8
0
  6
Continuous
 62
     7
100
AcDbCircle
 10
-54.98934219290904
 20
141.6262945436417
 30
0.0
 40
7.000000000000095
100
AcDbArc
 50
273.9999999999936
 51
281.9999999999928
  0
ARC
  5
1D6
330
72
100
AcDbEntity
  8
0
  6
Continuous
 62
     7
100
AcDbCircle
 10
-54.98934219290904
 20
141.6262945436417
 30
0.0
 40
6.900000000000087
100
AcDbArc
 50
281.999999999993
 51
289.9999999999926
  0
ARC
  5
1D7
330
72
100
AcDbEntity
  8
0
  6
Continuous
 62
     7
100
AcDbCircle
 10
-54.98934219290904
 20
141.6262945436417
 30
0.0
 40
7.000000000000056
100
AcDbArc
 50
289.999999999993
 51
297.9999999999932
  0
ARC
  5
1D8
330
72
100
AcDbEntity
  8
0
  6
Continuous
 62
     7
100
AcDbCircle
 10
-54.98934219290904
 20
141.6262945436417
 30
0.0
 40
7.000000000000069
100
AcDbArc
 50
73.99999999999424
 51
81.99999999999402
  0
ARC
  5
1D9
330
72
100
AcDbEntity
  8
0
  6
Continuous
 62
     7
100
AcDbCircle
 10
-54.98934219290335
 20
141.6262945436396
 30
0.0
 40
6.900000000001229
100
AcDbArc
 50
66.00000000004374
 51
74.00000000004455
  0
ARC
  5
1DA
330
72
100
AcDbEntity
  8
0
  6
Continuous
 62
     7
100
AcDbCircle
 10
-54.98934219290904
 20
141.6262945436417
 30
0.0
 40
7.000000000000028
100
AcDbArc
 50
57.99999999999354
 51
65.99999999999378
  0
ARC
  5
1DB
330
72
100
AcDbEntity
  8
0
  6
Continuous
 62
     7
100
AcDbCircle
 10
-54.98934219290756
 20
141.6262945436406
 30
0.0
 40
6.900000000000132
100
AcDbArc
 50
50.00000000000841
 51
58.00000000000357
  0
ARC
  5
1DC
330
72
100
AcDbEntity
  8
0
  6
Continuous
 62
     7
100
AcDbCircle
 10
-54.98934219291131
 20
141.6262945436442
 30
0.0
 40
6.900000000000071
100
AcDbArc
 50
41.29188366657629
 51
41.99999999996184
  0
ARC
  5
1DD
330
72
100
AcDbEntity
  8
0
  6
Continuous
 62
     7
100
AcDbCircle
 10
-54.98934219290904
 20
141.6262945436417
 30
0.0
 40
6.899999999999992
100
AcDbArc
 50
33.99999999999332
 51
41.29188366660431
  0
ARC
  5
1DE
330
72
100
AcDbEntity
  8
0
  6
Continuous
 62
     7
100
AcDbCircle
 10
-54.98934219290904
 20
141.6262945436417
 30
0.0
 40
7.000000000000095
100
AcDbArc
 50
41.9999999999915
 51
49.99999999999325
  0
ARC
  5
1DF
330
72
100
AcDbEntity
  8
0
  6
Continuous
 62
     7
100
AcDbCircle
 10
-79.48934219293251
 20
144.576294543644
 30
0.0
 40
1.550000000000296
100
AcDbArc
 50
89.9999999999937
 51
269.9999999999957
  0
ARC
  5
1E0
330
72
100
AcDbEntity
  8
0
  6
Continuous
 62
     7
100
AcDbCircle
 10
-79.44759976240256
 20
144.6262945436444
 30
0.0
 40
4.0
100
AcDbArc
 50
90.0
 51
203.5781784785163
  0
ARC
  5
1E1
330
72
100
AcDbEntity
  8
0
  6
Continuous
 62
     7
100
AcDbCircle
 10
-54.98934219290904
 20
141.6262945436417
 30
0.0
 40
7.000000000000056
100
AcDbArc
 50
329.9999999999935
 51
337.8273010148098
  0
ARC
  5
1E2
330
72
100
AcDbEntity
  8
0
  6
Continuous
 62
     7
100
AcDbCircle
 10
-54.98934219290904
 20
141.6262945436417
 30
0.0
 40
6.900000000000028
100
AcDbArc
 50
329.9999999999923
 51
337.9999999999927
  0
ARC
  5
1E3
330
72
100
AcDbEntity
  8
0
  6
Continuous
 62
     7
100
AcDbCircle
 10
-54.98934219290904
 20
141.6262945436417
 30
0.0
 40
7.000000000000018
100
AcDbArc
 50
337.9999999999927
 51
345.9999999999931
  0
ARC
  5
1E4
330
72
100
AcDbEntity
  8
0
  6
Continuous
 62
     7
100
AcDbCircle
 10
-54.98934219290904
 20
141.6262945436417
 30
0.0
 40
7.00000000000002
100
AcDbArc
 50
321.9999999999929
 51
329.9999999999935
  0
ARC
  5
1E5
330
72
100
AcDbEntity
  8
0
  6
Continuous
 62
     7
100
AcDbCircle
 10
-54.98934219291353
 20
141.6262945436366
 30
0.0
 40
6.900000000000207
100
AcDbArc
 50
314.0000000000495
 51
322.0000000000491
  0
ARC
  5
1E6
330
72
100
AcDbEntity
  8
0
  6
Continuous
 62
     7
100
AcDbCircle
 10
-54.98934219290904
 20
141.6262945436417
 30
0.0
 40
6.900000000000004
100
AcDbArc
 50
297.9999999999927
 51
305.9999999999927
  0
ARC
  5
1E7
330
72
100
AcDbEntity
  8
0
  6
Continuous
 62
     7
100
AcDbCircle
 10
-54.98934219290904
 20
141.6262945436417
 30
0.0
 40
7.000000000000013
100
AcDbArc
 50
345.9999999999931
 51
352.1016293977118
  0
ARC
  5
1E8
330
72
100
AcDbEntity
  8
0
  6
Continuous
 62
     7
100
AcDbCircle
 10
-54.98934219290875
 20
141.626294543644
 30
0.0
 40
7.000000000000068
100
AcDbArc
 50
352.1016293976928
 51
352.8192442185153
  0
ARC
  5
1E9
330
72
100
AcDbEntity
  8
0
  6
Continuous
 62
     7
100
AcDbCircle
 10
-54.98934219290943
 20
141.6262945436378
 30
0.0
 40
7.000000000000057
100
AcDbArc
 50
353.5357283742741
 51
354.0000000000252
  0
ARC
  5
1EA
330
72
100
AcDbEntity
  8
0
  6
Continuous
 62
     7
100
AcDbCircle
 10
-54.98934219290841
 20
141.6262945436468
 30
0.0
 40
7.000000000000084
100
AcDbArc
 50
352.8192442184924
 51
353.5357283742001
  0
ARC
  5
1EB
330
72
100
AcDbEntity
  8
0
  6
Continuous
 62
     7
100
AcDbCircle
 10
-54.98934219290722
 20
141.6262945436432
 30
0.0
 40
7.000000000000121
100
AcDbArc
 50
305.9999999999739
 51
313.9999999999742
  0
ARC
  5
1EC
330
72
100
AcDbEntity
  8
0
  6
Continuous
 62
     7
100
AcDbCircle
 10
-76.98934219290585
 20
122.9262945436453
 30
0.0
 40
6.69999999999677
100
AcDbArc
 50
132.9999999999734
 51
312.9999999999745
  0
ARC
  5
1ED
330
72
100
AcDbEntity
  8
0
  6
Continuous
 62
     7
100
AcDbCircle
 10
-179.2208471843237
 20
141.4301844685562
 30
0.0
 40
4.783607487726671
100
AcDbArc
 50
150.4495096076686
 51
162.836406561549
  0
ARC
  5
1EE
330
72
100
AcDbEntity
  8
0
  6
Continuous
 62
     7
100
AcDbCircle
 10
-179.8998281987191
 20
141.6268855613033
 30
0.0
 40
4.075697179982059
100
AcDbArc
 50
176.5842137787664
 51
190.350678140998
  0
ARC
  5
1EF
330
72
100
AcDbEntity
  8
0
  6
Continuous
 62
     7
100
AcDbCircle
 10
-179.6701986126456
 20
141.6107206532656
 30
0.0
 40
4.132893847072442
100
AcDbArc
 50
162.9216269956015
 51
176.4433612110166
  0
ARC
  5
1F0
330
72
100
AcDbEntity
  8
0
  6
Continuous
 62
     7
100
AcDbCircle
 10
-209.3893422788202
 20
140.751294543641
 30
0.0
 40
0.0999999999999091
100
AcDbArc
 50
359.999999999886
 51
60.24751292427936
  0
ARC
  5
1F1
330
72
100
AcDbEntity
  8
0
  6
Continuous
 62
     7
100
AcDbCircle
 10
-175.7486213064746
 20
138.42487133494
 30
0.0
 40
9.271935137540448
100
AcDbArc
 50
122.5166311308035
 51
130.4102918549864
  0
ARC
  5
1F2
330
72
100
AcDbEntity
  8
0
  6
Continuous
 62
     7
100
AcDbCircle
 10
-173.4697803820551
 20
134.3475437612333
 30
0.0
 40
13.9510583537618
100
AcDbArc
 50
109.7514445790528
 51
115.7616841475338
  0
ARC
  5
1F3
330
72
100
AcDbEntity
  8
0
  6
Continuous
 62
     7
100
AcDbCircle
 10
-172.6880744678499
 20
132.0210666293953
 30
0.0
 40
16.51566793388578
100
AcDbArc
 50
104.3546173460479
 51
109.7765311845848
  0
ARC
  5
1F4
330
72
100
AcDbEntity
  8
0
  6
Continuous
 62
     7
100
AcDbCircle
 10
-172.1702457415725
 20
130.2080938537612
 30
0.0
 40
18.29445373890824
100
AcDbArc
 50
99.35949871930687
 51
104.3752391322493
  0
ARC
  5
1F5
330
72
100
AcDbEntity
  8
0
  6
Continuous
 62
     7
100
AcDbCircle
 10
-171.9239628702037
 20
128.5579977595118
 30
0.0
 40
20.06524692088269
100
AcDbArc
 50
94.61567710632767
 51
99.37698808019314
  0
ARC
  5
1F6
330
72
100
AcDbEntity
  8
0
  6
Continuous
 62
     7
100
AcDbCircle
 10
-174.5608343004572
 20
136.4399333468862
 30
0.0
 40
11.70980992775308
100
AcDbArc
 50
115.731217620973
 51
122.5516714729138
  0
ARC
  5
1F7
330
72
100
AcDbEntity
  8
0
  6
Continuous
 62
     7
100
AcDbCircle
 10
-177.0970098640683
 20
139.8890936893726
 30
0.0
 40
7.41860725582362
100
AcDbArc
 50
130.3761904164116
 51
139.6238095835897
  0
ARC
  5
1F8
330
72
100
AcDbEntity
  8
0
  6
Continuous
 62
     7
100
AcDbCircle
 10
-257.0547216874357
 20
128.5579977595154
 30
0.0
 40
20.06524692087915
100
AcDbArc
 50
80.62301191980642
 51
85.38432289367297
  0
ARC
  5
1F9
330
72
100
AcDbEntity
  8
0
  6
Continuous
 62
     7
100
AcDbCircle
 10
-256.2906100897877
 20
132.0210666293968
 30
0.0
 40
16.51566793388382
100
AcDbArc
 50
70.22346881542047
 51
75.64538265395814
  0
ARC
  5
1FA
330
72
100
AcDbEntity
  8
0
  6
Continuous
 62
     7
100
AcDbCircle
 10
-256.8084388160565
 20
130.2080938537608
 30
0.0
 40
18.29445373890762
100
AcDbArc
 50
75.62476086778199
 51
80.64050128072654
  0
ARC
  5
1FB
330
72
100
AcDbEntity
  8
0
  6
Continuous
 62
     7
100
AcDbCircle
 10
-254.417850257182
 20
136.4399333468872
 30
0.0
 40
11.70980992775198
100
AcDbArc
 50
57.44832852708429
 51
64.26878237902791
  0
ARC
  5
1FC
330
72
100
AcDbEntity
  8
0
  6
Continuous
 62
     7
100
AcDbCircle
 10
-255.508904175582
 20
134.3475437612365
 30
0.0
 40
13.95105835375798
100
AcDbArc
 50
64.23831585247022
 51
70.2485554209495
  0
ARC
  5
1FD
330
72
100
AcDbEntity
  8
0
  6
Continuous
 62
     7
100
AcDbCircle
 10
-253.2300632511657
 20
138.4248713349395
 30
0.0
 40
9.27193513754112
100
AcDbArc
 50
49.58970814501289
 51
57.48336886919105
  0
ARC
  5
1FE
330
72
100
AcDbEntity
  8
0
  6
Continuous
 62
     7
100
AcDbCircle
 10
-251.8816746935705
 20
139.8890936893737
 30
0.0
 40
7.418607255822136
100
AcDbArc
 50
40.37619041640892
 51
49.62380958358942
  0
ARC
  5
1FF
330
72
100
AcDbEntity
  8
0
  6
Continuous
 62
     7
100
AcDbCircle
 10
-249.7578373733164
 20
141.4301844685561
 30
0.0
 40
4.783607487726974
100
AcDbArc
 50
17.16359343845089
 51
29.55049039233256
  0
ARC
  5
200
330
72
100
AcDbEntity
  8
0
  6
Continuous
 62
     7
100
AcDbCircle
 10
-214.4893422788162
 20
137.9512945436376
 30
0.0
 40
0.1999999999990691
100
AcDbArc
 50
240.2480640640822
 51
299.7524870791322
  0
ARC
  5
201
330
72
100
AcDbEntity
  8
0
  6
Continuous
 62
     7
100
AcDbCircle
 10
-257.1056160756339
 20
155.1875335673795
 30
0.0
 40
20.56070334963363
100
AcDbArc
 50
272.2966764588421
 51
276.9811045913959
  0
ARC
  5
202
330
72
100
AcDbEntity
  8
0
  6
Continuous
 62
     7
100
AcDbCircle
 10
-171.873067856243
 20
155.1875399694228
 30
0.0
 40
20.56070978027053
100
AcDbArc
 50
263.0188958460923
 51
267.703413307467
  0
ARC
  5
203
330
72
100
AcDbEntity
  8
0
  6
Continuous
 62
     7
100
AcDbCircle
 10
-172.0182365222503
 20
153.8508048876759
 30
0.0
 40
19.11477507788237
100
AcDbArc
 50
258.1642803731049
 51
263.0353181928812
  0
ARC
  5
204
330
72
100
AcDbEntity
  8
0
  6
Continuous
 62
     7
100
AcDbCircle
 10
-172.3954818101526
 20
152.2676264529963
 30
0.0
 40
17.59200292629846
100
AcDbArc
 50
252.9849567097586
 51
258.1831660955766
  0
ARC
  5
205
330
72
100
AcDbEntity
  8
0
  6
Continuous
 62
     7
100
AcDbCircle
 10
-173.0374113938327
 20
150.0130103064997
 30
0.0
 40
15.14000940210678
100
AcDbArc
 50
247.3166540784805
 51
253.0076534789008
  0
ARC
  5
206
330
72
100
AcDbEntity
  8
0
  6
Continuous
 62
     7
100
AcDbCircle
 10
-249.3084859449204
 20
141.6107206532829
 30
0.0
 40
4.132893846996753
100
AcDbArc
 50
3.55663878145064
 51
17.07837300447004
  0
ARC
  5
207
330
72
100
AcDbEntity
  8
0
  6
Continuous
 62
     7
100
AcDbCircle
 10
-249.0788564010001
 20
141.6268855689605
 30
0.0
 40
4.075697222752296
100
AcDbArc
 50
349.6493218593942
 51
3.41575643095951
  0
ARC
  5
208
330
72
100
AcDbEntity
  8
0
  6
Continuous
 62
     7
100
AcDbCircle
 10
-249.5340551431665
 20
141.6977323728044
 30
0.0
 40
4.36489480383841
100
AcDbArc
 50
336.4971204897781
 51
349.536772818282
  0
ARC
  5
209
330
72
100
AcDbEntity
  8
0
  6
Continuous
 62
     7
100
AcDbCircle
 10
-214.6893422788203
 20
138.6415271533422
 30
0.0
 40
0.2000000000000183
100
AcDbArc
 50
359.9999936943148
 51
60.01836063806798
  0
ARC
  5
20A
330
72
100
AcDbEntity
  8
0
  6
Continuous
 62
     7
100
AcDbCircle
 10
-214.6893422788203
 20
138.6415271533422
 30
0.0
 40
0.1999999999999231
100
AcDbArc
 50
240.0183606316387
 51
359.9999936943148
  0
ARC
  5
20B
330
72
100
AcDbEntity
  8
0
  6
Continuous
 62
     7
100
AcDbCircle
 10
-219.5892311985562
 20
140.751294543641
 30
0.0
 40
0.1001110802640994
100
AcDbArc
 50
180.0000000001139
 51
240.2480640655486
  0
ARC
  5
20C
330
72
100
AcDbEntity
  8
0
  6
Continuous
 62
     7
100
AcDbCircle
 10
-215.8893422788202
 20
139.5578020303374
 30
0.0
 40
0.4000000000000909
100
AcDbArc
 50
180.0000000000285
 51
240.0183606309945
  0
ARC
  5
20D
330
72
100
AcDbEntity
  8
0
  6
Continuous
 62
     7
100
AcDbCircle
 10
-216.8893422788202
 20
141.6035578714043
 30
0.0
 40
0.2000000000000427
100
AcDbArc
 50
6.52768917510708
 51
173.4723108238813
  0
ARC
  5
20E
330
72
100
AcDbEntity
  8
0
  6
Continuous
 62
     7
100
AcDbCircle
 10
-216.0893422788202
 20
142.0650963329427
 30
0.0
 40
0.1999999999999886
100
AcDbArc
 50
0.0
 51
179.9999999995929
  0
ARC
  5
20F
330
72
100
AcDbEntity
  8
0
  6
Continuous
 62
     7
100
AcDbCircle
 10
-214.4893422788203
 20
143.5512945436376
 30
0.0
 40
0.2000000000029903
100
AcDbArc
 50
60.24751292413003
 51
119.7519359309327
  0
ARC
  5
210
330
72
100
AcDbEntity
  8
0
  6
Continuous
 62
     7
100
AcDbCircle
 10
-219.5892311985582
 20
140.7512945436376
 30
0.0
 40
0.1001110802620295
100
AcDbArc
 50
119.7519359387571
 51
179.9999999981782
  0
ARC
  5
211
330
72
100
AcDbEntity
  8
0
  6
Continuous
 62
     7
100
AcDbCircle
 10
-215.2893422788214
 20
142.5180915578712
 30
0.0
 40
0.1999999999988747
100
AcDbArc
 50
30.00000000120904
 51
180.000000000057
  0
ARC
  5
212
330
72
100
AcDbEntity
  8
0
  6
Continuous
 62
     7
100
AcDbCircle
 10
-212.0893422788202
 20
140.751294543641
 30
0.0
 40
0.1999999999999886
100
AcDbArc
 50
359.9999999986809
 51
90.0
  0
ARC
  5
213
330
72
100
AcDbEntity
  8
0
  6
Continuous
 62
     7
100
AcDbCircle
 10
-212.8893422788202
 20
142.0608078168595
 30
0.0
 40
0.1999999999999676
100
AcDbArc
 50
60.01836063075302
 51
179.9999999999674
  0
ARC
  5
214
330
72
100
AcDbEntity
  8
0
  6
Continuous
 62
     7
100
AcDbCircle
 10
-212.0893422788202
 20
141.6035240758475
 30
0.0
 40
0.1999999999999072
100
AcDbArc
 50
6.53744082810724
 51
60.01836063375446
  0
ARC
  5
215
330
72
100
AcDbEntity
  8
0
  6
Continuous
 62
     7
100
AcDbCircle
 10
-212.0893422788202
 20
141.6035240758475
 30
0.0
 40
0.2000000000000471
100
AcDbArc
 50
240.0183609126559
 51
359.9999999992835
  0
ARC
  5
216
330
72
100
AcDbEntity
  8
0
  6
Continuous
 62
     7
100
AcDbCircle
 10
-213.6893422788203
 20
142.5180915578715
 30
0.0
 40
0.2000000000000171
100
AcDbArc
 50
0.00000000012213
 51
150.0000001038976
  0
ARC
  5
217
330
72
100
AcDbEntity
  8
0
  6
Continuous
 62
     7
100
AcDbCircle
 10
-178.1932000879693
 20
140.9073660230302
 30
0.0
 40
5.776888518482811
100
AcDbArc
 50
139.6055606826832
 51
150.4262471027591
  0
ARC
  5
218
330
72
100
AcDbEntity
  8
0
  6
Continuous
 62
     7
100
AcDbCircle
 10
-250.7854844696709
 20
140.9073660230301
 30
0.0
 40
5.776888518483
100
AcDbArc
 50
29.57375289724069
 51
40.39443931731611
  0
ARC
  5
219
330
72
100
AcDbEntity
  8
0
  6
Continuous
 62
     7
100
AcDbCircle
 10
-212.8893422788202
 20
139.4417812704224
 30
0.0
 40
0.1999999999999886
100
AcDbArc
 50
180.0000000000326
 51
299.9816393662081
  0
ARC
  5
21A
330
72
100
AcDbEntity
  8
0
  6
Continuous
 62
     7
100
AcDbCircle
 10
-212.0893422788202
 20
139.8990312158777
 30
0.0
 40
0.1999999999999886
100
AcDbArc
 50
359.9999997492196
 51
119.9816396490228
  0
ARC
  5
21B
330
72
100
AcDbEntity
  8
0
  6
Continuous
 62
     7
100
AcDbCircle
 10
-212.0893422788202
 20
140.751294543641
 30
0.0
 40
0.1999999999999886
100
AcDbArc
 50
270.0
 51
359.9999999986809
  0
ARC
  5
21C
330
72
100
AcDbEntity
  8
0
  6
Continuous
 62
     7
100
AcDbCircle
 10
-212.0893422788202
 20
139.8990312158777
 30
0.0
 40
0.19999999999996
100
AcDbArc
 50
299.9816393679886
 51
359.9999997492196
  0
ARC
  5
21D
330
72
100
AcDbEntity
  8
0
  6
Continuous
 62
     7
100
AcDbCircle
 10
-207.2893422788199
 20
137.6762945436419
 30
0.0
 40
0.3000000000002956
100
AcDbArc
 50
269.9999999999837
 51
359.9999999999837
  0
ARC
  5
21E
330
72
100
AcDbEntity
  8
0
  6
Continuous
 62
     7
100
AcDbCircle
 10
-177.6299469585927
 20
142.7793765992324
 30
0.0
 40
6.48731754805057
100
AcDbArc
 50
215.1823634866867
 51
225.1983876951112
  0
ARC
  5
21F
330
72
100
AcDbEntity
  8
0
  6
Continuous
 62
     7
100
AcDbCircle
 10
-178.792990097261
 20
142.035346328445
 30
0.0
 40
5.260880849299421
100
AcDbArc
 50
203.5562290959132
 51
215.1834243960128
  0
ARC
  5
220
330
72
100
AcDbEntity
  8
0
  6
Continuous
 62
     7
100
AcDbCircle
 10
-209.3893422788202
 20
140.751294543641
 30
0.0
 40
0.1000000000000254
100
AcDbArc
 50
299.7524870692612
 51
359.999999999886
  0
ARC
  5
221
330
72
100
AcDbEntity
  8
0
  6
Continuous
 62
     7
100
AcDbCircle
 10
-179.4446294144738
 20
141.6977323728054
 30
0.0
 40
4.364894803838378
100
AcDbArc
 50
190.4632271817316
 51
203.5028795102365
  0
ARC
  5
222
330
72
100
AcDbEntity
  8
0
  6
Continuous
 62
     7
100
AcDbCircle
 10
-176.4543278667557
 20
144.0582416010203
 30
0.0
 40
8.364319003125138
100
AcDbArc
 50
225.1695904987513
 51
233.7062039673954
  0
ARC
  5
223
330
72
100
AcDbEntity
  8
0
  6
Continuous
 62
     7
100
AcDbCircle
 10
-175.1207651367888
 20
145.7388648428907
 30
0.0
 40
10.37784856713081
100
AcDbArc
 50
233.6704739210918
 51
240.9925309444366
  0
ARC
  5
224
330
72
100
AcDbEntity
  8
0
  6
Continuous
 62
     7
100
AcDbCircle
 10
-173.9983798084262
 20
147.892760008156
 30
0.0
 40
12.92708045000808
100
AcDbArc
 50
240.9594778791064
 51
247.3443778971425
  0
ARC
  5
225
330
72
100
AcDbEntity
  8
0
  6
Continuous
 62
     7
100
AcDbCircle
 10
-221.68934227882
 20
137.6762945436419
 30
0.0
 40
0.3000000000000114
100
AcDbArc
 50
180.000000000038
 51
270.0
  0
ARC
  5
226
330
72
100
AcDbEntity
  8
0
  6
Continuous
 62
     7
100
AcDbCircle
 10
-256.9604480353891
 20
153.8508048876729
 30
0.0
 40
19.11477507787939
100
AcDbArc
 50
276.9646818071181
 51
281.8357196268946
  0
ARC
  5
227
330
72
100
AcDbEntity
  8
0
  6
Continuous
 62
     7
100
AcDbCircle
 10
-256.5832027474829
 20
152.2676264529957
 30
0.0
 40
17.59200292629663
100
AcDbArc
 50
281.8168339044098
 51
287.015043290228
  0
ARC
  5
228
330
72
100
AcDbEntity
  8
0
  6
Continuous
 62
     7
100
AcDbCircle
 10
-255.9412731638072
 20
150.0130103064997
 30
0.0
 40
15.14000940210676
100
AcDbArc
 50
286.9923465211001
 51
292.6833459215192
  0
ARC
  5
229
330
72
100
AcDbEntity
  8
0
  6
Continuous
 62
     7
100
AcDbCircle
 10
-213.6893422788203
 20
138.9844975294104
 30
0.0
 40
0.1999999999999034
100
AcDbArc
 50
180.0000000002524
 51
359.999999999886
  0
ARC
  5
22A
330
72
100
AcDbEntity
  8
0
  6
Continuous
 62
     7
100
AcDbCircle
 10
-254.9803047492094
 20
147.8927600081547
 30
0.0
 40
12.92708045000518
100
AcDbArc
 50
292.6556221028423
 51
299.0405221208804
  0
ARC
  5
22B
330
72
100
AcDbEntity
  8
0
  6
Continuous
 62
     7
100
AcDbCircle
 10
-253.8579194208595
 20
145.7388648428844
 30
0.0
 40
10.37784856713043
100
AcDbArc
 50
299.0074690556236
 51
306.3295260789652
  0
ARC
  5
22C
330
72
100
AcDbEntity
  8
0
  6
Continuous
 62
     7
100
AcDbCircle
 10
-252.5243566908848
 20
144.058241601021
 30
0.0
 40
8.364319003125834
100
AcDbArc
 50
306.2937960326048
 51
314.8304095012479
  0
ARC
  5
22D
330
72
100
AcDbEntity
  8
0
  6
Continuous
 62
     7
100
AcDbCircle
 10
-251.3487375990461
 20
142.7793765992316
 30
0.0
 40
6.487317548049145
100
AcDbArc
 50
314.801612304887
 51
324.8176365133142
  0
ARC
  5
22E
330
72
100
AcDbEntity
  8
0
  6
Continuous
 62
     7
100
AcDbCircle
 10
-250.1856944603796
 20
142.0353463284454
 30
0.0
 40
5.260880849300261
100
AcDbArc
 50
324.8165756039882
 51
336.4437709040859
  0
ARC
  5
22F
330
72
100
AcDbEntity
  8
0
  6
Continuous
 62
     7
100
AcDbCircle
 10
-216.8893422788202
 20
139.8990312158777
 30
0.0
 40
0.1999999999999886
100
AcDbArc
 50
180.0000000001466
 51
0.0
  0
ARC
  5
230
330
72
100
AcDbEntity
  8
0
  6
Continuous
 62
     7
100
AcDbCircle
 10
-215.2893422788211
 20
139.8990312158757
 30
0.0
 40
0.1999999999991928
100
AcDbArc
 50
179.99999999943
 51
359.9999999994545
  0
ARC
  5
231
330
72
100
AcDbEntity
  8
0
  6
Continuous
 62
     7
100
AcDbCircle
 10
-214.4893422788202
 20
140.9324509118164
 30
0.0
 40
0.1000000000001219
100
AcDbArc
 50
209.9999999976544
 51
330.000000000041
  0
CIRCLE
  5
232
330
72
100
AcDbEntity
  8
0
  6
Continuous
 62
     7
100
AcDbCircle
 10
-76.98934192612872
 20
93.1262945436458
 30
0.0
 40
13.37499999999999
  0
CIRCLE
  5
233
330
72
100
AcDbEntity
  8
0
  6
Continuous
 62
     7
100
AcDbCircle
 10
-76.98934219291046
 20
122.9262945436459
 30
0.0
 40
2.400000000000148
  0
CIRCLE
  5
234
330
72
100
AcDbEntity
  8
0
  6
Continuous
 62
     7
100
AcDbCircle
 10
-76.98934219291046
 20
122.9262945436459
 30
0.0
 40
4.200000000000045
  0
SPLINE
  5
235
330
72
100
AcDbEntity
  8
0
  6
Continuous
 62
     7
100
AcDbSpline
210
0.0
220
0.0
230
1.0
 70
     8
 71
     3
 72
     9
 73
     5
 74
     3
 42
0.000000001
 43
0.0000000001
 44
0.00000001
 40
0.0
 40
0.0
 40
0.0
 40
0.0
 40
0.0413431080036737
 40
0.0820671087748811
 40
0.0820671087748811
 40
0.0820671087748811
 40
0.0820671087748811
 10
-195.4893422788202
 20
146.2740598202922
 30
0.0
 10
-195.4765290527801
 20
146.2689859889717
 30
0.0
 10
-195.4510944844137
 20
146.2589142876819
 30
0.0
 10
-195.4258082960243
 20
146.2484756710236
 30
0.0
 10
-195.4132605839917
 20
146.2432957275172
 30
0.0
 11
-195.4893422788202
 21
146.2740598202922
 31
0.0
 11
-195.4509402612499
 21
146.25874519885
 31
0.0
 11
-195.4132605839917
 21
146.2432957275172
 31
0.0
  0
SPLINE
  5
236
330
72
100
AcDbEntity
  8
0
  6
Continuous
 62
     7
100
AcDbSpline
210
0.0
220
0.0
230
1.0
 70
     8
 71
     3
 72
     9
 73
     5
 74
     3
 42
0.000000001
 43
0.0000000001
 44
0.00000001
 40
0.0
 40
0.0
 40
0.0
 40
0.0
 40
3.353354465660185
 40
6.784777474978403
 40
6.784777474978403
 40
6.784777474978403
 40
6.784777474978403
 10
-237.7772046352602
 20
99.81453048446022
 30
0.0
 10
-238.071876394666
 20
98.73210610292708
 30
0.0
 10
-238.6680800679362
 20
96.54205770510485
 30
0.0
 10
-238.7507134680379
 20
94.27358294429919
 30
0.0
 10
-238.7925055656644
 20
93.12629454364591
 30
0.0
 11
-237.7772046352602
 21
99.81453048446022
 31
0.0
 11
-238.535765016168
 21
96.54809935461596
 31
0.0
 11
-238.7925055656644
 21
93.12629454364591
 31
0.0
  0
SPLINE
  5
237
330
72
100
AcDbEntity
  8
0
  6
Continuous
 62
     7
100
AcDbSpline
210
0.0
220
0.0
230
1.0
 70
     8
 71
     3
 72
     9
 73
     5
 74
     3
 42
0.000000001
 43
0.0000000001
 44
0.00000001
 40
0.0
 40
0.0
 40
0.0
 40
0.0
 40
2.122232125086827
 40
4.142290692074324
 40
4.142290692074324
 40
4.142290692074324
 40
4.142290692074324
 10
-252.1893422788197
 20
131.0167296478259
 30
0.0
 10
-252.9446030366918
 20
130.8619511807516
 30
0.0
 10
-254.4187629792428
 20
130.5598459458552
 30
0.0
 10
-254.8023026410858
 20
129.111834729477
 30
0.0
 10
-254.9893422788201
 20
128.4056874066404
 30
0.0
 11
-252.1893422788197
 21
131.0167296478259
 31
0.0
 11
-254.168852997999
 21
130.2516110154461
 31
0.0
 11
-254.9893422788201
 21
128.4056874066404
 31
0.0
  0
SPLINE
  5
238
330
72
100
AcDbEntity
  8
0
  6
Continuous
 62
     7
100
AcDbSpline
210
0.0
220
0.0
230
1.0
 70
     8
 71
     3
 72
    17
 73
    13
 74
    11
 42
0.000000001
 43
0.0000000001
 44
0.00000001
 40
0.0
 40
0.0
 40
0.0
 40
0.0
 40
0.5877248277497128
 40
1.216007178026332
 40
2.004594390709573
 40
3.086844631392346
 40
4.798706743255556
 40
5.928425766862841
 40
7.187937320494385
 40
8.395398120348307
 40
9.60398114820623
 40
10.30195385260216
 40
10.30195385260216
 40
10.30195385260216
 40
10.30195385260216
 10
-247.73934227882
 20
99.81453048446022
 30
0.0
 10
-247.9355362811932
 20
99.82606366355056
 30
0.0
 10
-248.3414631741061
 20
99.84992592048597
 30
0.0
 10
-248.9845822435887
 20
100.0519615151851
 30
0.0
 10
-249.7297954478856
 20
100.4305569611153
 30
0.0
 10
-250.6924716260525
 20
101.1461824520777
 30
0.0
 10
-251.6161107785128
 20
102.0793544166386
 30
0.0
 10
-252.4776607603485
 20
103.1412597887698
 30
0.0
 10
-253.1613786446556
 20
104.1296131134027
 30
0.0
 10
-253.7527332389682
 20
105.2004240394362
 30
0.0
 10
-254.1599193423817
 20
106.1719399086651
 30
0.0
 10
-254.2180581834577
 20
106.807144683387
 30
0.0
 10
-254.2393422788201
 20
107.0396873721403
 30
0.0
 11
-247.73934227882
 21
99.81453048446022
 31
0.0
 11
-248.3242323582367
 21
99.87218524182796
 31
0.0
 11
-248.9268474972178
 21
100.0499314355582
 31
0.0
 11
-249.6324258155345
 21
100.4021089830567
 31
0.0
 11
-250.5093311741346
 21
101.0363822459393
 31
0.0
 11
-251.727036808637
 21
102.2395717036912
 31
0.0
 11
-252.4397204140529
 21
103.1161258368253
 31
0.0
 11
-253.1524913950602
 21
104.1545510288154
 31
0.0
 11
-253.7343711117377
 21
105.212557444873
 31
0.0
 11
-254.1498701410489
 21
106.3474730829702
 31
0.0
 11
-254.2393422788201
 21
107.0396873721403
 31
0.0
  0
SPLINE
  5
239
330
72
100
AcDbEntity
  8
0
  6
Continuous
 62
     7
100
AcDbSpline
210
0.0
220
0.0
230
1.0
 70
     8
 71
     3
 72
     9
 73
     5
 74
     3
 42
0.000000001
 43
0.0000000001
 44
0.00000001
 40
0.0
 40
0.0
 40
0.0
 40
0.0
 40
0.4171103190845662
 40
0.8338819516487055
 40
0.8338819516487055
 40
0.8338819516487055
 40
0.8338819516487055
 10
-171.8512623665182
 20
134.7262945436417
 30
0.0
 10
-171.990306221161
 20
134.7269943810269
 30
0.0
 10
-172.2682810288873
 20
134.7283935075373
 30
0.0
 10
-172.5460862790081
 20
134.738200888194
 30
0.0
 10
-172.6849324876216
 20
134.7431025968488
 30
0.0
 11
-171.8512623665182
 21
134.7262945436417
 31
0.0
 11
-172.268351506504
 21
134.7304978372202
 31
0.0
 11
-172.6849324876216
 21
134.7431025968488
 31
0.0
  0
SPLINE
  5
23A
330
72
100
AcDbEntity
  8
0
  6
Continuous
 62
     7
100
AcDbSpline
210
0.0
220
0.0
230
1.0
 70
     8
 71
     3
 72
     9
 73
     5
 74
     3
 42
0.000000001
 43
0.0000000001
 44
0.00000001
 40
0.0
 40
0.0
 40
0.0
 40
0.0
 40
2.122232125087063
 40
4.142290692074908
 40
4.142290692074908
 40
4.142290692074908
 40
4.142290692074908
 10
-176.7893422788204
 20
131.0167296478259
 30
0.0
 10
-176.0340815209481
 20
130.8619511807516
 30
0.0
 10
-174.5599215783969
 20
130.5598459458551
 30
0.0
 10
-174.1763819165542
 20
129.1118347294766
 30
0.0
 10
-173.98934227882
 20
128.4056874066398
 30
0.0
 11
-176.7893422788204
 21
131.0167296478259
 31
0.0
 11
-174.809831559641
 21
130.251611015446
 31
0.0
 11
-173.98934227882
 21
128.4056874066398
 31
0.0
  0
SPLINE
  5
23B
330
72
100
AcDbEntity
  8
0
  6
Continuous
 62
     7
100
AcDbSpline
210
0.0
220
0.0
230
1.0
 70
     8
 71
     3
 72
     9
 73
     5
 74
     3
 42
0.000000001
 43
0.0000000001
 44
0.00000001
 40
0.0
 40
0.0
 40
0.0
 40
0.0
 40
0.4167879022055731
 40
0.8339145306592652
 40
0.8339145306592652
 40
0.8339145306592652
 40
0.8339145306592652
 10
-256.2937195158673
 20
134.7431039111594
 30
0.0
 10
-256.4325711385799
 20
134.7382018192641
 30
0.0
 10
-256.7103872301293
 20
134.7283936715034
 30
0.0
 10
-256.9883728991899
 20
134.726994435712
 30
0.0
 10
-257.1274221911218
 20
134.7262945436417
 30
0.0
 11
-256.2937195158673
 21
134.7431039111594
 31
0.0
 11
-256.7103167442521
 21
134.7304981659981
 31
0.0
 11
-257.1274221911218
 21
134.7262945436417
 31
0.0
  0
SPLINE
  5
23C
330
72
100
AcDbEntity
  8
0
  6
Continuous
 62
     7
100
AcDbSpline
210
0.0
220
0.0
230
1.0
 70
    24
 71
     3
 72
     9
 73
     5
 74
     3
 42
0.000000001
 43
0.0000000001
 44
0.00000001
 40
0.0
 40
0.0
 40
0.0
 40
0.0
 40
0.0113868061847364
 40
0.0227736123694728
 40
0.0227736123694728
 40
0.0227736123694728
 40
0.0227736123694728
 10
-217.0880456852692
 20
141.626294543666
 30
0.0
 10
-217.0882617841943
 20
141.6225050982891
 30
0.0
 10
-217.0886939820447
 20
141.6149262075353
 30
0.0
 10
-217.0891261798951
 20
141.6073473167815
 30
0.0
 10
-217.0893422788202
 20
141.6035578714047
 30
0.0
 11
-217.0880456852692
 21
141.626294543666
 31
0.0
 11
-217.0886939820447
 21
141.6149262075353
 31
0.0
 11
-217.0893422788202
 21
141.6035578714047
 31
0.0
  0
SPLINE
  5
23D
330
72
100
AcDbEntity
  8
0
  6
Continuous
 62
     7
100
AcDbSpline
210
0.0
220
0.0
230
1.0
 70
    24
 71
     3
 72
     9
 73
     5
 74
     3
 42
0.000000001
 43
0.0000000001
 44
0.00000001
 40
0.0
 40
0.0
 40
0.0
 40
0.0
 40
0.0113868061831863
 40
0.0227736123663459
 40
0.0227736123663459
 40
0.0227736123663459
 40
0.0227736123663459
 10
-216.6893422788203
 20
141.6035578714043
 30
0.0
 10
-216.6895583777454
 20
141.6073473167807
 30
0.0
 10
-216.6899905755955
 20
141.6149262075334
 30
0.0
 10
-216.6904227734456
 20
141.6225050982862
 30
0.0
 10
-216.6906388723707
 20
141.6262945436625
 30
0.0
 11
-216.6893422788203
 21
141.6035578714043
 31
0.0
 11
-216.6899905755955
 21
141.6149262075334
 31
0.0
 11
-216.6906388723707
 21
141.6262945436625
 31
0.0
  0
SPLINE
  5
23E
330
72
100
AcDbEntity
  8
0
  6
Continuous
 62
     7
100
AcDbSpline
210
0.0
220
0.0
230
1.0
 70
    24
 71
     3
 72
     9
 73
     5
 74
     3
 42
0.000000001
 43
0.0000000001
 44
0.00000001
 40
0.0
 40
0.0
 40
0.0
 40
0.0
 40
0.0114037983812221
 40
0.0228075967624758
 40
0.0228075967624758
 40
0.0228075967624758
 40
0.0228075967624758
 10
-211.8893422788202
 20
141.603524075845
 30
0.0
 10
-211.8895590231827
 20
141.6073191576689
 30
0.0
 10
-211.8899925119077
 20
141.6149093213168
 30
0.0
 10
-211.8904260006327
 20
141.6224994849645
 30
0.0
 10
-211.8906427449952
 20
141.6262945667885
 30
0.0
 11
-211.8893422788202
 21
141.603524075845
 31
0.0
 11
-211.8899925119077
 21
141.6149093213168
 31
0.0
 11
-211.8906427449952
 21
141.6262945667885
 31
0.0
  0
SPLINE
  5
23F
330
72
100
AcDbEntity
  8
0
  6
Continuous
 62
     7
100
AcDbSpline
210
0.0
220
0.0
230
1.0
 70
     8
 71
     3
 72
     9
 73
     5
 74
     3
 42
0.000000001
 43
0.0000000001
 44
0.00000001
 40
0.0
 40
0.0
 40
0.0
 40
0.0
 40
3.353354465660082
 40
6.784777474978265
 40
6.784777474978265
 40
6.784777474978265
 40
6.784777474978265
 10
-191.2014799223798
 20
99.81453048446011
 30
0.0
 10
-190.9068081629741
 20
98.73210610292699
 30
0.0
 10
-190.3106044897037
 20
96.54205770510477
 30
0.0
 10
-190.2279710896023
 20
94.2735829442992
 30
0.0
 10
-190.1861789919758
 20
93.12629454364591
 30
0.0
 11
-191.2014799223798
 21
99.81453048446011
 31
0.0
 11
-190.4429195414721
 21
96.54809935461593
 31
0.0
 11
-190.1861789919758
 21
93.12629454364591
 31
0.0
  0
SPLINE
  5
240
330
72
100
AcDbEntity
  8
0
  6
Continuous
 62
     7
100
AcDbSpline
210
0.0
220
0.0
230
1.0
 70
     8
 71
     3
 72
    17
 73
    13
 74
    11
 42
0.000000001
 43
0.0000000001
 44
0.00000001
 40
0.0
 40
0.0
 40
0.0
 40
0.0
 40
0.6979669465927272
 40
1.906527400794926
 40
3.393935746172669
 40
4.373289485979284
 40
5.791312299732683
 40
7.215556875954166
 40
8.29766093827999
 40
9.086180671313747
 40
9.714381349662506
 40
10.30203873134688
 40
10.30203873134688
 40
10.30203873134688
 40
10.30203873134688
 10
-174.73934227882
 20
107.0396873721403
 30
0.0
 10
-174.7606404408977
 20
106.8071393771263
 30
0.0
 10
-174.8188173213958
 20
106.1719243072709
 30
0.0
 10
-175.2620968660954
 20
105.1133300276435
 30
0.0
 10
-175.8684734606929
 20
104.050263067612
 30
0.0
 10
-176.615122987586
 20
102.990188213066
 30
0.0
 10
-177.4275367965372
 20
102.0068622605166
 30
0.0
 10
-178.3635243569696
 20
101.0884361249756
 30
0.0
 10
-179.2491332917944
 20
100.4304449831006
 30
0.0
 10
-179.9942323095456
 20
100.0519063297127
 30
0.0
 10
-180.6372951592679
 20
99.84991797613404
 30
0.0
 10
-181.0431712742933
 20
99.8260611361723
 30
0.0
 10
-181.2393422788202
 20
99.81453048446022
 30
0.0
 11
-174.73934227882
 21
107.0396873721403
 31
0.0
 11
-174.82881307302
 21
106.3474787150014
 31
0.0
 11
-175.2443012902018
 21
105.2125831574511
 31
0.0
 11
-175.9767015937363
 21
103.9179892527843
 31
0.0
 11
-176.5389671009758
 21
103.1161219039058
 31
0.0
 11
-177.4445534898572
 21
102.0249289839527
 31
0.0
 11
-178.4696320188911
 21
101.0361486152049
 31
0.0
 11
-179.3464447764354
 21
100.4019967513727
 31
0.0
 11
-180.0519764510287
 21
100.0498768545182
 31
0.0
 11
-180.6545186844782
 21
99.87217217637848
 31
0.0
 11
-181.2393422788202
 21
99.81453048446022
 31
0.0
  0
SOLID
  5
241
330
72
100
AcDbEntity
  8
1
 62
     7
100
AcDbTrace
 10
-180.1697473582164
 20
77.68323746126289
 30
0.0
 11
-180.7516858171221
 21
77.14909018344298
 31
0.0
 12
-182.48934227882
 22
79.62629454364591
 32
0.0
 13
-182.48934227882
 23
79.62629454364591
 33
0.0
  0
LEADER
  5
242
330
72
100
AcDbEntity
  8
1
  6
Continuous
 62
     7
100
AcDbLeader
  3
Standard
 71
     0
 76
     3
 10
-182.48934227882
 20
79.62629454364591
 30
0.0
 10
-166.813340999798
 20
62.5477313740445
 30
0.0
 10
-149.714720616482
 20
62.5477313740445
 30
0.0
  0
MTEXT
  5
244
330
72
100
AcDbEntity
  8
1
 62
     7
100
AcDbMText
 10
-162.505201540603
 20
63.81411469850811
 30
0.0
 40
3.5
 41
0.0
 71
     7
 72
     1
  1
\U+00f84,5
  7
CONVERTER_11
 73
     1
 44
1.32052821128451
  0
DIMENSION
  5
24F
330
72
100
AcDbEntity
  8
1
100
AcDbDimension
  2
*D5
 10
-148.539842579812
 20
76.62629454364591
 30
0.0
 11
-152.039842579812
 21
92.9512945436459
 31
0.0
 70
    32
  1
PG21
 71
     5
 42
-1.0
 53
90.0
  3
ME10_DIM_10
100
AcDbAlignedDimension
 13
-163.98934227882
 23
109.2762945436459
 33
0.0
 14
-163.98934227882
 24
76.62629454364591
 34
0.0
 50
90.0
100
AcDbRotatedDimension
  0
DIMENSION
  5
25A
330
72
100
AcDbEntity
  8
1
100
AcDbDimension
  2
*D6
 10
-101.9893419261287
 20
158.6262945436444
 30
0.0
 11
-72.25891838509996
 21
162.1262945436444
 31
0.0
 70
    32
  1
60
 71
     5
 42
-1.0
 53
0.00013888888889
  3
ME10_DIM_11
100
AcDbAlignedDimension
 13
-42.52849484407122
 23
132.6262945436459
 33
0.0
 14
-101.9893419261287
 24
79.62629454364591
 34
0.0
100
AcDbRotatedDimension
  0
DIMENSION
  5
265
330
72
100
AcDbEntity
  8
1
100
AcDbDimension
  2
*D7
 10
-246.48934227882
 20
65.62629454364591
 30
0.0
 11
-214.48934227882
 21
68.87629454364591
 31
0.0
 70
    32
  1
<>
 71
     5
 42
-1.0
 53
0.00013888888889
  3
ME10_DIM_12
100
AcDbAlignedDimension
 13
-182.48934227882
 23
73.3121665684169
 33
0.0
 14
-246.48934227882
 24
73.3121665684169
 34
0.0
100
AcDbRotatedDimension
  0
DIMENSION
  5
270
330
72
100
AcDbEntity
  8
1
100
AcDbDimension
  2
*D8
 10
-101.9893419261287
 20
55.62629454364591
 30
0.0
 11
-76.98934192612872
 21
58.87629454364591
 31
0.0
 70
    32
  1
<>
 71
     5
 42
-1.0
 53
0.00013888888889
  3
ME10_DIM_13
100
AcDbAlignedDimension
 13
-51.98934192612872
 23
75.62629454364591
 33
0.0
 14
-101.9893419261287
 24
75.62629454364591
 34
0.0
100
AcDbRotatedDimension
  0
DIMENSION
  5
27D
330
72
100
AcDbEntity
  8
1
100
AcDbDimension
  2
*D9
 10
-41.98934192612872
 20
75.62629454364594
 30
0.0
 11
-45.23934192612872
 21
87.45203988665892
 31
0.0
 70
    33
  1
<>
 71
     5
 42
-1.0
 53
90.0
  3
ME10_DIM_14
100
AcDbAlignedDimension
 13
-51.98934192612872
 23
79.62629454364591
 33
0.0
 14
-51.98934192612872
 24
75.62629454364591
 34
0.0
  0
DIMENSION
  5
288
330
72
100
AcDbEntity
  8
1
100
AcDbDimension
  2
*D10
 10
-31.98934192612872
 20
132.6262945436459
 30
0.0
 11
-35.23934192612872
 21
104.1262945436459
 31
0.0
 70
    32
  1
<>
 71
     5
 42
-1.0
 53
90.0
  3
ME10_DIM_15
100
AcDbAlignedDimension
 13
-51.98934192612872
 23
75.62629454364591
 33
0.0
 14
-76.41143624945973
 24
132.6262945436459
 34
0.0
 50
90.0
100
AcDbRotatedDimension
  0
DIMENSION
  5
293
330
72
100
AcDbEntity
  8
1
100
AcDbDimension
  2
*D11
 10
-96.98934192612872
 20
65.62629454364591
 30
0.0
 11
-76.98934192612872
 21
68.87629454364591
 31
0.0
 70
    32
  1
<>
 71
     5
 42
-1.0
 53
0.00013888888889
  3
ME10_DIM_16
100
AcDbAlignedDimension
 13
-56.98934192612872
 23
73.3121665684169
 33
0.0
 14
-96.98934192612872
 24
73.3121665684169
 34
0.0
100
AcDbRotatedDimension
  0
DIMENSION
  5
29E
330
72
100
AcDbEntity
  8
1
100
AcDbDimension
  2
*D12
 10
-264.98934227882
 20
55.62629454364591
 30
0.0
 11
-214.48934227882
 21
58.87629454364591
 31
0.0
 70
    33
  1
<>
 71
     5
 42
-1.0
 53
0.00013888888889
  3
ME10_DIM_17
100
AcDbAlignedDimension
 13
-163.98934227882
 23
76.62629454364591
 33
0.0
 14
-264.9893422788201
 24
76.62629454364591
 34
0.0
  0
ENDBLK
  5
74
330
72
100
AcDbEntity
  8
0
100
AcDbBlockEnd
  0
BLOCK
  5
77
330
75
100
AcDbEntity
  8
0
100
AcDbBlockBegin
  2
1
 70
     0
 10
-478.789340887196
 20
-75.87370517503709
 30
0.0
  3
1
  1
1
  0
INSERT
  5
76
330
75
100
AcDbEntity
  8
0
100
AcDbBlockReference
  2
Anteriore1
 10
-188.7893408870961
 20
112.1262948249479
 30
0.0
  0
ENDBLK
  5
78
330
75
100
AcDbEntity
  8
0
100
AcDbBlockEnd
  0
BLOCK
  5
7B
330
79
100
AcDbEntity
  8
0
100
AcDbBlockBegin
  2
JPP_25_L21__1
 70
     0
 10
-478.789340887196
 20
-75.87370517503709
 30
0.0
  3
JPP_25_L21__1
  1
JPP_25_L21__1
  0
INSERT
  5
7A
330
79
100
AcDbEntity
  8
1
100
AcDbBlockReference
  2
1
 10
-478.789340887196
 20
-75.87370517503709
 30
0.0
  0
ENDBLK
  5
7C
330
79
100
AcDbEntity
  8
0
100
AcDbBlockEnd
  0
BLOCK
  5
7E
330
7D
100
AcDbEntity
  8
0
100
AcDbBlockBegin
  2
_formato_A4
 70
     0
 10
0.0
 20
0.0
 30
0.0
  3
_formato_A4
  1
_formato_A4
  0
LINE
  5
29F
330
7D
100
AcDbEntity
  8
1
  6
Continuous
 62
     7
100
AcDbLine
 10
-189.0
 20
4.99999999999989
 30
0.0
 11
-189.0
 21
40.0
 31
0.0
  0
LINE
  5
2A0
330
7D
100
AcDbEntity
  8
1
  6
Continuous
 62
     7
100
AcDbLine
 10
-189.0
 20
20.0
 30
0.0
 11
-5.0
 21
20.0
 31
0.0
  0
LINE
  5
2A1
330
7D
100
AcDbEntity
  8
1
  6
Continuous
 62
     7
100
AcDbLine
 10
-292.0000000000002
 20
189.0
 30
0.0
 11
-292.0000000000002
 21
5.0
 31
0.0
  0
LINE
  5
2A2
330
7D
100
AcDbEntity
  8
1
  6
Continuous
 62
     7
100
AcDbLine
 10
-163.9999999999999
 20
35.0
 30
0.0
 11
-163.9999999999999
 21
40.0
 31
0.0
  0
LINE
  5
2A3
330
7D
100
AcDbEntity
  8
1
  6
Continuous
 62
     7
100
AcDbLine
 10
-182.0
 20
35.0
 30
0.0
 11
-182.0
 21
40.0
 31
0.0
  0
LINE
  5
2A4
330
7D
100
AcDbEntity
  8
1
  6
Continuous
 62
     7
100
AcDbLine
 10
-189.0
 20
40.0
 30
0.0
 11
-5.0
 21
40.0
 31
0.0
  0
LINE
  5
2A5
330
7D
100
AcDbEntity
  8
1
  6
Continuous
 62
     7
100
AcDbLine
 10
-163.9999999999999
 20
30.0
 30
0.0
 11
-163.9999999999999
 21
35.0
 31
0.0
  0
LINE
  5
2A6
330
7D
100
AcDbEntity
  8
1
  6
Continuous
 62
     7
100
AcDbLine
 10
-182.0
 20
30.0
 30
0.0
 11
-182.0
 21
35.0
 31
0.0
  0
LINE
  5
2A7
330
7D
100
AcDbEntity
  8
1
  6
Continuous
 62
     7
100
AcDbLine
 10
-189.0
 20
35.0
 30
0.0
 11
-5.0
 21
35.0
 31
0.0
  0
LINE
  5
2A8
330
7D
100
AcDbEntity
  8
1
  6
Continuous
 62
     7
100
AcDbLine
 10
-163.9999999999999
 20
25.0
 30
0.0
 11
-163.9999999999999
 21
30.0
 31
0.0
  0
LINE
  5
2A9
330
7D
100
AcDbEntity
  8
1
  6
Continuous
 62
     7
100
AcDbLine
 10
-182.0
 20
25.0
 30
0.0
 11
-182.0
 21
30.0
 31
0.0
  0
LINE
  5
2AA
330
7D
100
AcDbEntity
  8
1
  6
Continuous
 62
     7
100
AcDbLine
 10
-189.0
 20
30.0
 30
0.0
 11
-5.0
 21
30.0
 31
0.0
  0
LINE
  5
2AB
330
7D
100
AcDbEntity
  8
1
  6
Continuous
 62
     7
100
AcDbLine
 10
-163.9999999999999
 20
20.0
 30
0.0
 11
-163.9999999999999
 21
25.0
 31
0.0
  0
LINE
  5
2AC
330
7D
100
AcDbEntity
  8
1
  6
Continuous
 62
     7
100
AcDbLine
 10
-182.0
 20
20.0
 30
0.0
 11
-182.0
 21
25.0
 31
0.0
  0
LINE
  5
2AD
330
7D
100
AcDbEntity
  8
1
  6
Continuous
 62
     7
100
AcDbLine
 10
-189.0
 20
25.0
 30
0.0
 11
-5.0
 21
25.0
 31
0.0
  0
LINE
  5
2AE
102
{ACAD_REACTORS
330
2F6
102
}
330
7D
100
AcDbEntity
  8
1
  6
Continuous
 62
     7
100
AcDbLine
 10
-14.15712516009421
 20
10.55800208038033
 30
0.0
 11
-15.49045849342747
 21
9.78877131114973
 31
0.0
  0
LINE
  5
2AF
102
{ACAD_REACTORS
330
2F6
102
}
330
7D
100
AcDbEntity
  8
1
  6
Continuous
 62
     7
100
AcDbLine
 10
-15.32369931125731
 20
10.65463653264794
 30
0.0
 11
-14.49027346242053
 21
11.13545913774624
 31
0.0
  0
LINE
  5
2B0
102
{ACAD_REACTORS
330
2F6
102
}
330
7D
100
AcDbEntity
  8
1
  6
Continuous
 62
     7
100
AcDbLine
 10
-15.32369931125731
 20
12.16666666666663
 30
0.0
 11
-15.32369931125731
 21
10.65463653264794
 31
0.0
  0
LINE
  5
2B1
102
{ACAD_REACTORS
330
2F6
102
}
330
7D
100
AcDbEntity
  8
1
  6
Continuous
 62
     7
100
AcDbLine
 10
-14.32369931125731
 20
12.16666666666663
 30
0.0
 11
-15.32369931125731
 21
12.16666666666663
 31
0.0
  0
LINE
  5
2B2
102
{ACAD_REACTORS
330
2F6
102
}
330
7D
100
AcDbEntity
  8
1
  6
Continuous
 62
     7
100
AcDbLine
 10
-15.32369931125731
 20
12.83333333333326
 30
0.0
 11
-14.32369931125731
 21
12.83333333333326
 31
0.0
  0
LINE
  5
2B3
102
{ACAD_REACTORS
330
2F6
102
}
330
7D
100
AcDbEntity
  8
1
  6
Continuous
 62
     7
100
AcDbLine
 10
-15.32369931125731
 20
14.34536346735195
 30
0.0
 11
-15.32369931125731
 21
12.83333333333326
 31
0.0
  0
LINE
  5
2B4
102
{ACAD_REACTORS
330
2F6
102
}
330
7D
100
AcDbEntity
  8
1
  6
Continuous
 62
     7
100
AcDbLine
 10
-14.49027346242053
 20
13.86454086225376
 30
0.0
 11
-15.32369931125731
 21
14.34536346735195
 31
0.0
  0
LINE
  5
2B5
102
{ACAD_REACTORS
330
2F6
102
}
330
7D
100
AcDbEntity
  8
1
  6
Continuous
 62
     7
100
AcDbLine
 10
-15.49045849342747
 20
15.21122868885027
 30
0.0
 11
-14.15712516009421
 21
14.44199791961944
 31
0.0
  0
LINE
  5
2B6
102
{ACAD_REACTORS
330
2F7
102
}
330
7D
100
AcDbEntity
  8
1
  6
Continuous
 62
     7
100
AcDbLine
 10
-22.65703264459069
 20
10.84673060906323
 30
0.0
 11
-22.65703264459069
 21
14.15326939093666
 31
0.0
  0
LINE
  5
2B7
102
{ACAD_REACTORS
330
2F7
102
}
330
7D
100
AcDbEntity
  8
1
  6
Continuous
 62
     7
100
AcDbLine
 10
-21.99036597792406
 20
11.0392519172633
 30
0.0
 11
-21.99036597792406
 21
10.84673060906323
 31
0.0
  0
LINE
  5
2B8
102
{ACAD_REACTORS
330
2F7
102
}
330
7D
100
AcDbEntity
  8
1
  6
Continuous
 62
     7
100
AcDbLine
 10
-21.99036597792406
 20
14.15326939093666
 30
0.0
 11
-21.99036597792406
 21
11.0392519172633
 31
0.0
  0
LINE
  5
2B9
102
{ACAD_REACTORS
330
2F8
102
}
330
7D
100
AcDbEntity
  8
1
  6
Continuous
 62
     7
100
AcDbLine
 10
-18.8236067957539
 20
8.44261746499581
 30
0.0
 11
-20.99018094691702
 21
9.69256409066691
 31
0.0
  0
LINE
  5
2BA
102
{ACAD_REACTORS
330
2F8
102
}
330
7D
100
AcDbEntity
  8
1
  6
Continuous
 62
     7
100
AcDbLine
 10
-20.65703264459069
 20
10.2700211480327
 30
0.0
 11
-18.49045849342748
 21
9.0200745223616
 31
0.0
  0
LINE
  5
2BB
102
{ACAD_REACTORS
330
2F8
102
}
330
7D
100
AcDbEntity
  8
1
  6
Continuous
 62
     7
100
AcDbLine
 10
-20.65703264459069
 20
14.92250016016737
 30
0.0
 11
-20.65703264459069
 21
10.2700211480327
 31
0.0
  0
LINE
  5
2BC
102
{ACAD_REACTORS
330
2F8
102
}
330
7D
100
AcDbEntity
  8
1
  6
Continuous
 62
     7
100
AcDbLine
 10
-21.32369931125732
 20
10.27002114803258
 30
0.0
 11
-21.32369931125732
 21
14.92250016016737
 31
0.0
  0
LINE
  5
2BD
102
{ACAD_REACTORS
330
2F9
102
}
330
7D
100
AcDbEntity
  8
1
  6
Continuous
 62
     7
100
AcDbLine
 10
-17.15146632821404
 20
15.86370041827229
 30
0.0
 11
-18.32369931125732
 21
13.83333333333326
 31
0.0
  0
LINE
  5
2BE
102
{ACAD_REACTORS
330
2F9
102
}
330
7D
100
AcDbEntity
  8
1
  6
Continuous
 62
     7
100
AcDbLine
 10
-16.65703264459069
 20
9.3082690706018
 30
0.0
 11
-16.65703264459069
 21
15.73121731203457
 31
0.0
  0
LINE
  5
2BF
102
{ACAD_REACTORS
330
2F9
102
}
330
7D
100
AcDbEntity
  8
1
  6
Continuous
 62
     7
100
AcDbLine
 10
-17.32369931125732
 20
12.5
 30
0.0
 11
-17.32369931125732
 21
9.3082690706018
 31
0.0
  0
LINE
  5
2C0
102
{ACAD_REACTORS
330
2F9
102
}
330
7D
100
AcDbEntity
  8
1
  6
Continuous
 62
     7
100
AcDbLine
 10
-19.32369931125732
 20
10.84758507263291
 30
0.0
 11
-19.32369931125732
 21
12.5
 31
0.0
  0
LINE
  5
2C1
102
{ACAD_REACTORS
330
2F9
102
}
330
7D
100
AcDbEntity
  8
1
  6
Continuous
 62
     7
100
AcDbLine
 10
-19.99036597792406
 20
12.5
 30
0.0
 11
-19.99036597792406
 21
10.84758507263291
 31
0.0
  0
LINE
  5
2C2
102
{ACAD_REACTORS
330
2F9
102
}
330
7D
100
AcDbEntity
  8
1
  6
Continuous
 62
     7
100
AcDbLine
 10
-19.49593229430059
 20
15.86370041827229
 30
0.0
 11
-18.32369931125732
 21
13.83333333333326
 31
0.0
  0
LINE
  5
2C3
102
{ACAD_REACTORS
330
2F9
102
}
330
7D
100
AcDbEntity
  8
1
  6
Continuous
 62
     7
100
AcDbLine
 10
-19.99036597792406
 20
12.5
 30
0.0
 11
-19.99036597792406
 21
15.73121731203457
 31
0.0
  0
LINE
  5
2C4
330
7D
100
AcDbEntity
  8
1
  6
Continuous
 62
     7
100
AcDbLine
 10
-18.32369931125732
 20
7.5
 30
0.0
 11
-26.74013458639888
 21
12.35563573565855
 31
0.0
  0
LINE
  5
2C5
330
7D
100
AcDbEntity
  8
1
  6
Continuous
 62
     7
100
AcDbLine
 10
-9.90726403611586
 20
12.35563573565855
 30
0.0
 11
-18.32369931125732
 21
7.5
 31
0.0
  0
LINE
  5
2C6
330
7D
100
AcDbEntity
  8
1
  6
Continuous
 62
     7
100
AcDbLine
 10
-18.32369931125732
 20
17.5
 30
0.0
 11
-9.90726403611586
 21
12.64436426434133
 31
0.0
  0
LINE
  5
2C7
330
7D
100
AcDbEntity
  8
1
  6
Continuous
 62
     7
100
AcDbLine
 10
-26.74013458639888
 20
12.64436426434133
 30
0.0
 11
-18.32369931125732
 21
17.5
 31
0.0
  0
LINE
  5
2C8
102
{ACAD_REACTORS
330
2F9
102
}
330
7D
100
AcDbEntity
  8
1
  6
Continuous
 62
     7
100
AcDbLine
 10
-19.32369931125732
 20
14.23205080756884
 30
0.0
 11
-19.32369931125732
 21
12.5
 31
0.0
  0
LINE
  5
2C9
102
{ACAD_REACTORS
330
2F9
102
}
330
7D
100
AcDbEntity
  8
1
  6
Continuous
 62
     7
100
AcDbLine
 10
-18.46803687855481
 20
12.75
 30
0.0
 11
-19.32369931125732
 21
14.23205080756884
 31
0.0
  0
LINE
  5
2CA
102
{ACAD_REACTORS
330
2F9
102
}
330
7D
100
AcDbEntity
  8
1
  6
Continuous
 62
     7
100
AcDbLine
 10
-17.32369931125732
 20
14.23205080756884
 30
0.0
 11
-18.17936174395993
 21
12.75
 31
0.0
  0
LINE
  5
2CB
102
{ACAD_REACTORS
330
2F9
102
}
330
7D
100
AcDbEntity
  8
1
  6
Continuous
 62
     7
100
AcDbLine
 10
-17.32369931125732
 20
12.5
 30
0.0
 11
-17.32369931125732
 21
14.23205080756884
 31
0.0
  0
LINE
  5
2CC
102
{ACAD_REACTORS
330
2F6
102
}
330
7D
100
AcDbEntity
  8
1
  6
Continuous
 62
     7
100
AcDbLine
 10
-15.99036597792394
 20
10.07749983983263
 30
0.0
 11
-15.99036597792394
 21
14.92250016016737
 31
0.0
  0
LINE
  5
2CD
330
7D
100
AcDbEntity
  8
1
  6
Continuous
 62
     7
100
AcDbLine
 10
-5.0
 20
189.0
 30
0.0
 11
-292.0000000000002
 21
189.0
 31
0.0
  0
LINE
  5
2CE
330
7D
100
AcDbEntity
  8
1
  6
Continuous
 62
     7
100
AcDbLine
 10
-5.0
 20
5.0
 30
0.0
 11
-5.0
 21
189.0
 31
0.0
  0
LINE
  5
2CF
330
7D
100
AcDbEntity
  8
1
  6
Continuous
 62
     7
100
AcDbLine
 10
-292.0000000000002
 20
5.0
 30
0.0
 11
-5.0
 21
5.0
 31
0.0
  0
LINE
  5
2D0
330
7D
100
AcDbEntity
  8
1
  6
Continuous
 62
     7
100
AcDbLine
 10
0.0
 20
0.0
 30
0.0
 11
0.0
 21
210.0000000000001
 31
0.0
  0
LINE
  5
2D1
330
7D
100
AcDbEntity
  8
1
  6
Continuous
 62
     7
100
AcDbLine
 10
0.0
 20
210.0000000000001
 30
0.0
 11
-297.0000000000001
 21
210.0000000000001
 31
0.0
  0
LINE
  5
2D2
330
7D
100
AcDbEntity
  8
1
  6
Continuous
 62
     7
100
AcDbLine
 10
-297.0000000000001
 20
210.0000000000001
 30
0.0
 11
-297.0000000000001
 21
0.0
 31
0.0
  0
LINE
  5
2D3
330
7D
100
AcDbEntity
  8
1
  6
Continuous
 62
     7
100
AcDbLine
 10
-297.0000000000001
 20
0.0
 30
0.0
 11
0.0
 21
0.0
 31
0.0
  0
LINE
  5
2D4
330
7D
100
AcDbEntity
  8
1
  6
Continuous
 62
     7
100
AcDbLine
 10
-148.5000000000003
 20
210.0000000000001
 30
0.0
 11
-148.5000000000003
 21
195.0000000000001
 31
0.0
  0
LINE
  5
2D5
330
7D
100
AcDbEntity
  8
1
  6
Continuous
 62
     7
100
AcDbLine
 10
-159.0
 20
20.0
 30
0.0
 11
-159.0
 21
5.0
 31
0.0
  0
LINE
  5
2D6
330
7D
100
AcDbEntity
  8
1
  6
Continuous
 62
     7
100
AcDbLine
 10
-31.64739862251463
 20
20.0
 30
0.0
 11
-31.64739862251463
 21
5.0
 31
0.0
  0
LINE
  5
2D7
330
7D
100
AcDbEntity
  8
1
  6
Continuous
 62
     7
100
AcDbLine
 10
-49.0
 20
20.0
 30
0.0
 11
-49.0
 21
5.0
 31
0.0
  0
LINE
  5
2D8
330
7D
100
AcDbEntity
  8
1
  6
Continuous
 62
     7
100
AcDbLine
 10
-189.0
 20
14.99999999999989
 30
0.0
 11
-159.0
 21
14.99999999999989
 31
0.0
  0
LINE
  5
2D9
330
7D
100
AcDbEntity
  8
1
  6
Continuous
 62
     7
100
AcDbLine
 10
-189.0
 20
9.99999999999986
 30
0.0
 11
-159.0
 21
9.99999999999986
 31
0.0
  0
ARC
  5
2DA
102
{ACAD_REACTORS
330
2F6
102
}
330
7D
100
AcDbEntity
  8
1
  6
Continuous
 62
     7
100
AcDbCircle
 10
-14.32369931125731
 20
10.84673060906323
 30
0.0
 40
0.3333333333333145
100
AcDbArc
 50
299.9816393688326
 51
119.9816393688413
  0
ARC
  5
2DB
102
{ACAD_REACTORS
330
2F6
102
}
330
7D
100
AcDbEntity
  8
1
  6
Continuous
 62
     7
100
AcDbCircle
 10
-14.32369931125731
 20
12.5
 30
0.0
 40
0.3333333333333695
100
AcDbArc
 50
270.0
 51
90.0
  0
ARC
  5
2DC
102
{ACAD_REACTORS
330
2F6
102
}
330
7D
100
AcDbEntity
  8
1
  6
Continuous
 62
     7
100
AcDbCircle
 10
-14.32369931125731
 20
14.15326939093666
 30
0.0
 40
0.3333333333333773
100
AcDbArc
 50
240.0183606311493
 51
60.01836063115717
  0
ARC
  5
2DD
102
{ACAD_REACTORS
330
2F7
102
}
330
7D
100
AcDbEntity
  8
1
  6
Continuous
 62
     7
100
AcDbCircle
 10
-22.32369931125732
 20
10.84673060906323
 30
0.0
 40
0.3333333333333677
100
AcDbArc
 50
180.0
 51
0.0
  0
ARC
  5
2DE
102
{ACAD_REACTORS
330
2F7
102
}
330
7D
100
AcDbEntity
  8
1
  6
Continuous
 62
     7
100
AcDbCircle
 10
-22.32369931125732
 20
14.15326939093666
 30
0.0
 40
0.3333333333332611
100
AcDbArc
 50
0.0
 51
180.0
  0
ARC
  5
2DF
102
{ACAD_REACTORS
330
2F8
102
}
330
7D
100
AcDbEntity
  8
1
  6
Continuous
 62
     7
100
AcDbCircle
 10
-18.65703264459069
 20
8.7313459936787
 30
0.0
 40
0.3333333333333673
100
AcDbArc
 50
240.0183606311504
 51
60.01836063115043
  0
ARC
  5
2E0
102
{ACAD_REACTORS
330
2F8
102
}
330
7D
100
AcDbEntity
  8
1
  6
Continuous
 62
     7
100
AcDbCircle
 10
-20.99036597792406
 20
14.92250016016737
 30
0.0
 40
0.3333333333333712
100
AcDbArc
 50
0.0
 51
180.0
  0
ARC
  5
2E1
102
{ACAD_REACTORS
330
2F9
102
}
330
7D
100
AcDbEntity
  8
1
  6
Continuous
 62
     7
100
AcDbCircle
 10
-16.921998857066
 20
15.73121731203457
 30
0.0
 40
0.2649662124753114
100
AcDbArc
 50
0.0
 51
149.9999999999743
  0
ARC
  5
2E2
102
{ACAD_REACTORS
330
2F9
102
}
330
7D
100
AcDbEntity
  8
1
  6
Continuous
 62
     7
100
AcDbCircle
 10
-16.99036597792394
 20
9.3082690706018
 30
0.0
 40
0.3333333333333819
100
AcDbArc
 50
180.0
 51
0.0
  0
ARC
  5
2E3
102
{ACAD_REACTORS
330
2F9
102
}
330
7D
100
AcDbEntity
  8
1
  6
Continuous
 62
     7
100
AcDbCircle
 10
-19.65703264459069
 20
10.84758507263291
 30
0.0
 40
0.3333333333333712
100
AcDbArc
 50
180.0
 51
0.0
  0
ARC
  5
2E4
102
{ACAD_REACTORS
330
2F9
102
}
330
7D
100
AcDbEntity
  8
1
  6
Continuous
 62
     7
100
AcDbCircle
 10
-19.72539976544874
 20
15.73121731203457
 30
0.0
 40
0.2649662124753284
100
AcDbArc
 50
30.00000000001384
 51
180.0
  0
ARC
  5
2E5
102
{ACAD_REACTORS
330
2F6
102
}
330
7D
100
AcDbEntity
  8
1
  6
Continuous
 62
     7
100
AcDbCircle
 10
-15.65703264459069
 20
10.07749983983263
 30
0.0
 40
0.3333333333332504
100
AcDbArc
 50
180.0
 51
299.9816393688506
  0
ARC
  5
2E6
102
{ACAD_REACTORS
330
2F6
102
}
330
7D
100
AcDbEntity
  8
1
  6
Continuous
 62
     7
100
AcDbCircle
 10
-15.65703264459069
 20
14.92250016016737
 30
0.0
 40
0.3333333333333749
100
AcDbArc
 50
60.01836063114941
 51
180.0
  0
ARC
  5
2E7
330
7D
100
AcDbEntity
  8
1
  6
Continuous
 62
     7
100
AcDbCircle
 10
-9.99055111169741
 20
12.5
 30
0.0
 40
0.1666666666666586
100
AcDbArc
 50
299.9816393688334
 51
60.01836063114615
  0
ARC
  5
2E8
330
7D
100
AcDbEntity
  8
1
  6
Continuous
 62
     7
100
AcDbCircle
 10
-26.65684751081722
 20
12.5
 30
0.0
 40
0.1666666666666105
100
AcDbArc
 50
119.9816393688866
 51
240.0183606311338
  0
ARC
  5
2E9
102
{ACAD_REACTORS
330
2F8
102
}
330
7D
100
AcDbEntity
  8
1
  6
Continuous
 62
     7
100
AcDbCircle
 10
-20.65703264459069
 20
10.2700211480327
 30
0.0
 40
0.6666666666666323
100
AcDbArc
 50
180.0000000000104
 51
240.0183606311572
  0
ARC
  5
2EA
102
{ACAD_REACTORS
330
2F9
102
}
330
7D
100
AcDbEntity
  8
1
  6
Continuous
 62
     7
100
AcDbCircle
 10
-18.32369931125732
 20
12.83333333333326
 30
0.0
 40
0.1666666666666997
100
AcDbArc
 50
209.999999999964
 51
330.0000000000195
  0
MTEXT
  5
2EC
330
7D
100
AcDbEntity
  8
1
 62
     7
100
AcDbMText
 10
-40.32369931125731
 20
10.06063942075605
 30
0.0
 40
4.5
 41
0.0
 71
     5
 72
     1
  1
1:1
  7
CONVERTER_12
 73
     1
 44
1.32052821128451
  0
MTEXT
  5
2ED
330
7D
100
AcDbEntity
  8
1
 62
     7
100
AcDbMText
 10
-40.32369931125731
 20
16.26063942075598
 30
0.0
 40
3.0
 41
0.0
 71
     5
 72
     1
  1
Scale
  7
CONVERTER_12
 73
     1
 44
1.32052821128451
  0
MTEXT
  5
2EE
330
7D
100
AcDbEntity
  8
1
 62
     7
100
AcDbMText
 10
-152.7236993112573
 20
12.5
 30
0.0
 40
4.5
 41
0.0
 71
     4
 72
     1
  1
JPP 25 L21\PSurface mounting housing 1 lever - JEI
  7
CONVERTER_12
 73
     1
 44
0.90036014405762
  0
MTEXT
  5
2EF
330
7D
100
AcDbEntity
  8
1
 62
     7
100
AcDbMText
 10
-145.5000000000003
 20
194.0000000000001
 30
0.0
 40
4.0
 41
0.0
 71
     5
 72
     1
  1
Diritti riservati      All rights reserved
  7
CONVERTER_12
 73
     1
 44
1.32052821128451
  0
MTEXT
  5
2F1
330
7D
100
AcDbEntity
  8
1
 62
     7
100
AcDbMText
 10
-174.0
 20
17.49999999999994
 30
0.0
 40
2.5
 41
0.0
 71
     5
 72
     1
  1
dimensions in mm
  7
CONVERTER_13
 73
     1
 44
0.60024009603842
  0
MTEXT
  5
2F2
330
7D
100
AcDbEntity
  8
1
 62
     7
100
AcDbMText
 10
-188.0
 20
12.49999999999987
 30
0.0
 40
3.0
 41
0.0
 71
     4
 72
     1
  1
Date
  7
CONVERTER_12
 73
     1
 44
1.32052821128451
  0
MTEXT
  5
2F3
330
7D
100
AcDbEntity
  8
1
 62
     7
100
AcDbMText
 10
-177.4
 20
12.49999999999987
 30
0.0
 40
3.0
 41
0.0
 71
     4
 72
     1
  1
07/07/16
  7
CONVERTER_12
 73
     1
 44
1.32052821128451
  0
MTEXT
  5
2F4
330
7D
100
AcDbEntity
  8
1
 62
     7
100
AcDbMText
 10
-188.0
 20
7.49999999999987
 30
0.0
 40
3.0
 41
0.0
 71
     4
 72
     1
  1
Sign.
  7
CONVERTER_12
 73
     1
 44
1.32052821128451
  0
MTEXT
  5
2F5
330
7D
100
AcDbEntity
  8
1
 62
     7
100
AcDbMText
 10
-177.4
 20
7.49999999999987
 30
0.0
 40
3.0
 41
0.0
 71
     4
 72
     1
  1
F.Zaffora
  7
CONVERTER_12
 73
     1
 44
1.32052821128451
  0
HATCH
  5
2F6
330
7D
100
AcDbEntity
  8
1
  6
Continuous
 62
     7
100
AcDbHatch
 10
0.0
 20
0.0
 30
0.0
210
0.0
220
0.0
230
1.0
  2
SOLID
 70
     1
 71
     1
 91
        1
 92
        1
 93
       14
 72
     2
 10
-15.65703264459069
 20
14.92250016016737
 40
0.3333333333333749
 50
60.01836063114941
 51
180.0
 73
     1
 72
     1
 10
-15.99036597792394
 20
14.92250016016737
 11
-15.99036597792394
 21
10.07749983983263
 72
     2
 10
-15.65703264459069
 20
10.07749983983263
 40
0.3333333333332504
 50
180.0
 51
299.9816393688506
 73
     1
 72
     1
 10
-15.49045849342747
 20
9.78877131114973
 11
-14.15712516009421
 21
10.55800208038033
 72
     2
 10
-14.32369931125731
 20
10.84673060906323
 40
0.3333333333333145
 50
299.9816393688326
 51
479.9816393688413
 73
     1
 72
     1
 10
-14.49027346242053
 20
11.13545913774624
 11
-15.32369931125731
 21
10.65463653264794
 72
     1
 10
-15.32369931125731
 20
10.65463653264794
 11
-15.32369931125731
 21
12.16666666666663
 72
     1
 10
-15.32369931125731
 20
12.16666666666663
 11
-14.32369931125731
 21
12.16666666666663
 72
     2
 10
-14.32369931125731
 20
12.5
 40
0.3333333333333695
 50
270.0
 51
450.0
 73
     1
 72
     1
 10
-14.32369931125731
 20
12.83333333333326
 11
-15.32369931125731
 21
12.83333333333326
 72
     1
 10
-15.32369931125731
 20
12.83333333333326
 11
-15.32369931125731
 21
14.34536346735195
 72
     1
 10
-15.32369931125731
 20
14.34536346735195
 11
-14.49027346242053
 21
13.86454086225376
 72
     2
 10
-14.32369931125731
 20
14.15326939093666
 40
0.3333333333333773
 50
240.0183606311493
 51
420.0183606311572
 73
     1
 72
     1
 10
-14.15712516009421
 20
14.44199791961944
 11
-15.49045849342747
 21
15.21122868885027
 97
       14
330
2DC
330
2B4
330
2B3
330
2B2
330
2DB
330
2B1
330
2B0
330
2AF
330
2DA
330
2AE
330
2E5
330
2CC
330
2E6
330
2B5
 75
     0
 76
     1
 98
        1
 10
0.0
 20
0.0
  0
HATCH
  5
2F7
330
7D
100
AcDbEntity
  8
1
  6
Continuous
 62
     7
100
AcDbHatch
 10
0.0
 20
0.0
 30
0.0
210
0.0
220
0.0
230
1.0
  2
SOLID
 70
     1
 71
     1
 91
        1
 92
        1
 93
        5
 72
     2
 10
-22.32369931125732
 20
14.15326939093666
 40
0.3333333333332611
 50
0.0
 51
180.0
 73
     1
 72
     1
 10
-22.65703264459069
 20
14.15326939093666
 11
-22.65703264459069
 21
10.84673060906323
 72
     2
 10
-22.32369931125732
 20
10.84673060906323
 40
0.3333333333333677
 50
180.0
 51
360.0
 73
     1
 72
     1
 10
-21.99036597792406
 20
10.84673060906323
 11
-21.99036597792406
 21
11.0392519172633
 72
     1
 10
-21.99036597792406
 20
11.0392519172633
 11
-21.99036597792406
 21
14.15326939093666
 97
        5
330
2DE
330
2B6
330
2DD
330
2B7
330
2B8
 75
     0
 76
     1
 98
        1
 10
0.0
 20
0.0
  0
HATCH
  5
2F8
330
7D
100
AcDbEntity
  8
1
  6
Continuous
 62
     7
100
AcDbHatch
 10
0.0
 20
0.0
 30
0.0
210
0.0
220
0.0
230
1.0
  2
SOLID
 70
     1
 71
     1
 91
        1
 92
        1
 93
        7
 72
     2
 10
-20.99036597792406
 20
14.92250016016737
 40
0.3333333333333712
 50
0.0
 51
180.0
 73
     1
 72
     1
 10
-21.32369931125732
 20
14.92250016016737
 11
-21.32369931125732
 21
10.27002114803258
 72
     2
 10
-20.65703264459069
 20
10.2700211480327
 40
0.6666666666666323
 50
180.0000000000104
 51
240.0183606311572
 73
     1
 72
     1
 10
-20.99018094691702
 20
9.692564090666906
 11
-18.8236067957539
 21
8.442617464995806
 72
     2
 10
-18.65703264459069
 20
8.731345993678701
 40
0.3333333333333673
 50
240.0183606311504
 51
420.0183606311505
 73
     1
 72
     1
 10
-18.49045849342748
 20
9.020074522361597
 11
-20.65703264459069
 21
10.2700211480327
 72
     1
 10
-20.65703264459069
 20
10.2700211480327
 11
-20.65703264459069
 21
14.92250016016737
 97
        7
330
2E0
330
2BC
330
2E9
330
2B9
330
2DF
330
2BA
330
2BB
 75
     0
 76
     1
 98
        1
 10
0.0
 20
0.0
  0
HATCH
  5
2F9
330
7D
100
AcDbEntity
  8
1
  6
Continuous
 62
     7
100
AcDbHatch
 10
0.0
 20
0.0
 30
0.0
210
0.0
220
0.0
230
1.0
  2
SOLID
 70
     1
 71
     1
 91
        1
 92
        1
 93
       16
 72
     2
 10
-16.921998857066
 20
15.73121731203457
 40
0.2649662124753114
 50
210.0000000000258
 51
360.0
 73
     0
 72
     1
 10
-16.65703264459069
 20
15.73121731203457
 11
-16.65703264459069
 21
9.308269070601796
 72
     2
 10
-16.99036597792394
 20
9.308269070601796
 40
0.3333333333333819
 50
0.0
 51
180.0
 73
     0
 72
     1
 10
-17.32369931125732
 20
9.308269070601796
 11
-17.32369931125732
 21
12.5
 72
     1
 10
-17.32369931125732
 20
12.5
 11
-17.32369931125732
 21
14.23205080756884
 72
     1
 10
-17.32369931125732
 20
14.23205080756884
 11
-18.17936174395993
 21
12.75
 72
     2
 10
-18.32369931125732
 20
12.83333333333326
 40
0.1666666666666997
 50
29.99999999998053
 51
150.000000000036
 73
     0
 72
     1
 10
-18.46803687855481
 20
12.75
 11
-19.32369931125732
 21
14.23205080756884
 72
     1
 10
-19.32369931125732
 20
14.23205080756884
 11
-19.32369931125732
 21
12.5
 72
     1
 10
-19.32369931125732
 20
12.5
 11
-19.32369931125732
 21
10.84758507263291
 72
     2
 10
-19.65703264459069
 20
10.84758507263291
 40
0.3333333333333712
 50
0.0
 51
180.0
 73
     0
 72
     1
 10
-19.99036597792406
 20
10.84758507263291
 11
-19.99036597792406
 21
12.5
 72
     1
 10
-19.99036597792406
 20
12.5
 11
-19.99036597792406
 21
15.73121731203457
 72
     2
 10
-19.72539976544874
 20
15.73121731203457
 40
0.2649662124753284
 50
180.0
 51
329.9999999999862
 73
     0
 72
     1
 10
-19.49593229430059
 20
15.86370041827229
 11
-18.32369931125732
 21
13.83333333333326
 72
     1
 10
-18.32369931125732
 20
13.83333333333326
 11
-17.15146632821404
 21
15.86370041827229
 97
       16
330
2C2
330
2E4
330
2C3
330
2C1
330
2E3
330
2C0
330
2C8
330
2C9
330
2EA
330
2CA
330
2CB
330
2BF
330
2E2
330
2BE
330
2E1
330
2BD
 75
     0
 76
     1
 98
        1
 10
0.0
 20
0.0
  0
ENDBLK
  5
7F
330
7D
100
AcDbEntity
  8
0
100
AcDbBlockEnd
  0
BLOCK
  5
24C
330
245
100
AcDbEntity
  8
0
100
AcDbBlockBegin
  2
*D5
 70
     1
 10
0.0
 20
0.0
 30
0.0
  3
*D5
  1
*D5
  0
LINE
  5
246
330
245
100
AcDbEntity
  8
1
  6
Continuous
 62
     7
100
AcDbLine
 10
-148.539842579812
 20
76.62629454364591
 30
0.0
 11
-148.539842579812
 21
109.2762945436459
 31
0.0
  0
LINE
  5
247
330
245
100
AcDbEntity
  8
1
  6
Continuous
 62
     7
100
AcDbLine
 10
-163.48934227882
 20
109.2762945436459
 30
0.0
 11
-147.539842579812
 21
109.2762945436459
 31
0.0
  0
LINE
  5
248
330
245
100
AcDbEntity
  8
1
  6
Continuous
 62
     7
100
AcDbLine
 10
-163.48934227882
 20
76.62629454364591
 30
0.0
 11
-147.539842579812
 21
76.62629454364591
 31
0.0
  0
SOLID
  5
249
330
245
100
AcDbEntity
  8
1
 62
     7
100
AcDbTrace
 10
-148.9348000725742
 20
79.62629454364591
 30
0.0
 11
-148.1448850870498
 21
79.62629454364591
 31
0.0
 12
-148.539842579812
 22
76.62629454364591
 32
0.0
 13
-148.539842579812
 23
76.62629454364591
 33
0.0
  0
SOLID
  5
24A
330
245
100
AcDbEntity
  8
1
 62
     7
100
AcDbTrace
 10
-148.1448850870498
 20
106.2762945436459
 30
0.0
 11
-148.9348000725742
 21
106.2762945436459
 31
0.0
 12
-148.539842579812
 22
109.2762945436459
 32
0.0
 13
-148.539842579812
 23
109.2762945436459
 33
0.0
  0
MTEXT
  5
24B
330
245
100
AcDbEntity
  8
1
 62
     7
100
AcDbMText
 10
-150.539842579812
 20
88.3012945436459
 30
0.0
 40
3.0
 41
0.0
 71
     7
 72
     1
  1
PG21
  7
CONVERTER_11
 11
0.0
 21
1.0
 31
0.0
 73
     1
 44
0.60024009603842
  0
ENDBLK
  5
24D
330
245
100
AcDbEntity
  8
0
100
AcDbBlockEnd
  0
BLOCK
  5
257
330
250
100
AcDbEntity
  8
0
100
AcDbBlockBegin
  2
*D6
 70
     1
 10
0.0
 20
0.0
 30
0.0
  3
*D6
  1
*D6
  0
LINE
  5
251
330
250
100
AcDbEntity
  8
1
  6
Continuous
 62
     7
100
AcDbLine
 10
-101.9893419261287
 20
158.6262945436444
 30
0.0
 11
-42.52849484407122
 21
158.6262945436444
 31
0.0
  0
LINE
  5
252
330
250
100
AcDbEntity
  8
1
  6
Continuous
 62
     7
100
AcDbLine
 10
-42.52849484407122
 20
133.1262945436459
 30
0.0
 11
-42.52849484407122
 21
159.6262945436444
 31
0.0
  0
LINE
  5
253
330
250
100
AcDbEntity
  8
1
  6
Continuous
 62
     7
100
AcDbLine
 10
-101.9893419261287
 20
80.12629454364591
 30
0.0
 11
-101.9893419261287
 21
159.6262945436444
 31
0.0
  0
SOLID
  5
254
330
250
100
AcDbEntity
  8
1
 62
     7
100
AcDbTrace
 10
-98.98934192612872
 20
159.0212520364066
 30
0.0
 11
-98.98934192612872
 21
158.2313370508822
 31
0.0
 12
-101.9893419261287
 22
158.6262945436444
 32
0.0
 13
-101.9893419261287
 23
158.6262945436444
 33
0.0
  0
SOLID
  5
255
330
250
100
AcDbEntity
  8
1
 62
     7
100
AcDbTrace
 10
-45.52849484407122
 20
158.2313370508822
 30
0.0
 11
-45.52849484407122
 21
159.0212520364066
 31
0.0
 12
-42.52849484407122
 22
158.6262945436444
 32
0.0
 13
-42.52849484407122
 23
158.6262945436444
 33
0.0
  0
MTEXT
  5
256
330
250
100
AcDbEntity
  8
1
 62
     7
100
AcDbMText
 10
-74.50891838509996
 20
160.6262945436444
 30
0.0
 40
3.0
 41
0.0
 71
     7
 72
     1
  1
60
  7
CONVERTER_11
 11
0.9999999999970619
 21
2.424068405545306E-6
 31
0.0
 73
     1
 44
0.60024009603842
  0
ENDBLK
  5
258
330
250
100
AcDbEntity
  8
0
100
AcDbBlockEnd
  0
BLOCK
  5
262
330
25B
100
AcDbEntity
  8
0
100
AcDbBlockBegin
  2
*D7
 70
     1
 10
0.0
 20
0.0
 30
0.0
  3
*D7
  1
*D7
  0
LINE
  5
25C
330
25B
100
AcDbEntity
  8
1
  6
Continuous
 62
     7
100
AcDbLine
 10
-246.48934227882
 20
65.62629454364591
 30
0.0
 11
-182.48934227882
 21
65.62629454364591
 31
0.0
  0
LINE
  5
25D
330
25B
100
AcDbEntity
  8
1
  6
Continuous
 62
     7
100
AcDbLine
 10
-246.48934227882
 20
72.3121665684169
 30
0.0
 11
-246.48934227882
 21
63.62629454364591
 31
0.0
  0
LINE
  5
25E
330
25B
100
AcDbEntity
  8
1
  6
Continuous
 62
     7
100
AcDbLine
 10
-182.48934227882
 20
72.3121665684169
 30
0.0
 11
-182.48934227882
 21
63.62629454364591
 31
0.0
  0
SOLID
  5
25F
330
25B
100
AcDbEntity
  8
1
 62
     7
100
AcDbTrace
 10
-242.98934227882
 20
66.0870782852018
 30
0.0
 11
-242.98934227882
 21
65.16551080209003
 31
0.0
 12
-246.48934227882
 22
65.62629454364591
 32
0.0
 13
-246.48934227882
 23
65.62629454364591
 33
0.0
  0
SOLID
  5
260
330
25B
100
AcDbEntity
  8
1
 62
     7
100
AcDbTrace
 10
-185.98934227882
 20
65.16551080209003
 30
0.0
 11
-185.98934227882
 21
66.0870782852018
 31
0.0
 12
-182.48934227882
 22
65.62629454364591
 32
0.0
 13
-182.48934227882
 23
65.62629454364591
 33
0.0
  0
MTEXT
  5
261
330
25B
100
AcDbEntity
  8
1
 62
     7
100
AcDbMText
 10
-217.11434227882
 20
67.12629454364591
 30
0.0
 40
3.5
 41
0.0
 71
     7
 72
     1
  1
64
  7
CONVERTER_11
 11
0.9999999999970619
 21
2.424068405545306E-6
 31
0.0
 73
     1
 44
0.60024009603842
  0
ENDBLK
  5
263
330
25B
100
AcDbEntity
  8
0
100
AcDbBlockEnd
  0
BLOCK
  5
26D
330
266
100
AcDbEntity
  8
0
100
AcDbBlockBegin
  2
*D8
 70
     1
 10
0.0
 20
0.0
 30
0.0
  3
*D8
  1
*D8
  0
LINE
  5
267
330
266
100
AcDbEntity
  8
1
  6
Continuous
 62
     7
100
AcDbLine
 10
-101.9893419261287
 20
55.62629454364591
 30
0.0
 11
-51.98934192612872
 21
55.62629454364591
 31
0.0
  0
LINE
  5
268
330
266
100
AcDbEntity
  8
1
  6
Continuous
 62
     7
100
AcDbLine
 10
-101.9893419261287
 20
74.62629454364591
 30
0.0
 11
-101.9893419261287
 21
53.62629454364591
 31
0.0
  0
LINE
  5
269
330
266
100
AcDbEntity
  8
1
  6
Continuous
 62
     7
100
AcDbLine
 10
-51.98934192612872
 20
74.62629454364591
 30
0.0
 11
-51.98934192612872
 21
53.62629454364591
 31
0.0
  0
SOLID
  5
26A
330
266
100
AcDbEntity
  8
1
 62
     7
100
AcDbTrace
 10
-98.48934192612872
 20
56.0870782852018
 30
0.0
 11
-98.48934192612872
 21
55.16551080209003
 31
0.0
 12
-101.9893419261287
 22
55.62629454364591
 32
0.0
 13
-101.9893419261287
 23
55.62629454364591
 33
0.0
  0
SOLID
  5
26B
330
266
100
AcDbEntity
  8
1
 62
     7
100
AcDbTrace
 10
-55.48934192612872
 20
55.16551080209003
 30
0.0
 11
-55.48934192612872
 21
56.0870782852018
 31
0.0
 12
-51.98934192612872
 22
55.62629454364591
 32
0.0
 13
-51.98934192612872
 23
55.62629454364591
 33
0.0
  0
MTEXT
  5
26C
330
266
100
AcDbEntity
  8
1
 62
     7
100
AcDbMText
 10
-79.61434192612872
 20
57.12629454364591
 30
0.0
 40
3.5
 41
0.0
 71
     7
 72
     1
  1
50
  7
CONVERTER_11
 11
0.9999999999970619
 21
2.424068405545306E-6
 31
0.0
 73
     1
 44
0.60024009603842
  0
ENDBLK
  5
26E
330
266
100
AcDbEntity
  8
0
100
AcDbBlockEnd
  0
BLOCK
  5
27A
330
271
100
AcDbEntity
  8
0
100
AcDbBlockBegin
  2
*D9
 70
     1
 10
0.0
 20
0.0
 30
0.0
  3
*D9
  1
*D9
  0
LINE
  5
272
330
271
100
AcDbEntity
  8
1
  6
Continuous
 62
     7
100
AcDbLine
 10
-41.98934192612872
 20
68.62629454364594
 30
0.0
 11
-41.98934192612872
 21
75.62629454364594
 31
0.0
  0
LINE
  5
273
330
271
100
AcDbEntity
  8
1
  6
Continuous
 62
     7
100
AcDbLine
 10
-41.98934192612872
 20
75.62629454364594
 30
0.0
 11
-41.98934192612872
 21
79.62629454364594
 31
0.0
  0
LINE
  5
274
330
271
100
AcDbEntity
  8
1
  6
Continuous
 62
     7
100
AcDbLine
 10
-41.98934192612872
 20
79.62629454364594
 30
0.0
 11
-41.98934192612872
 21
88.50203988665893
 31
0.0
  0
LINE
  5
275
330
271
100
AcDbEntity
  8
1
  6
Continuous
 62
     7
100
AcDbLine
 10
-50.98934192612872
 20
75.62629454364594
 30
0.0
 11
-39.98934192612872
 21
75.62629454364594
 31
0.0
  0
LINE
  5
276
330
271
100
AcDbEntity
  8
1
  6
Continuous
 62
     7
100
AcDbLine
 10
-50.98934192612872
 20
79.62629454364594
 30
0.0
 11
-39.98934192612872
 21
79.62629454364594
 31
0.0
  0
SOLID
  5
277
330
271
100
AcDbEntity
  8
1
 62
     7
100
AcDbTrace
 10
-41.52855818457284
 20
72.12629454364594
 30
0.0
 11
-42.45012566768461
 21
72.12629454364594
 31
0.0
 12
-41.98934192612872
 22
75.62629454364594
 32
0.0
 13
-41.98934192612872
 23
75.62629454364594
 33
0.0
  0
SOLID
  5
278
330
271
100
AcDbEntity
  8
1
 62
     7
100
AcDbTrace
 10
-42.45012566768461
 20
83.12629454364594
 30
0.0
 11
-41.52855818457284
 21
83.12629454364594
 31
0.0
 12
-41.98934192612872
 22
79.62629454364594
 32
0.0
 13
-41.98934192612872
 23
79.62629454364594
 33
0.0
  0
MTEXT
  5
279
330
271
100
AcDbEntity
  8
1
 62
     7
100
AcDbMText
 10
-43.48934192612872
 20
86.40203988665893
 30
0.0
 40
3.5
 41
0.0
 71
     7
 72
     1
  1
4
  7
CONVERTER_11
 11
0.0
 21
1.0
 31
0.0
 73
     1
 44
0.60024009603842
  0
ENDBLK
  5
27B
330
271
100
AcDbEntity
  8
0
100
AcDbBlockEnd
  0
BLOCK
  5
285
330
27E
100
AcDbEntity
  8
0
100
AcDbBlockBegin
  2
*D10
 70
     1
 10
0.0
 20
0.0
 30
0.0
  3
*D10
  1
*D10
  0
LINE
  5
27F
330
27E
100
AcDbEntity
  8
1
  6
Continuous
 62
     7
100
AcDbLine
 10
-31.98934192612872
 20
132.6262945436459
 30
0.0
 11
-31.98934192612872
 21
75.6262945436459
 31
0.0
  0
LINE
  5
280
330
27E
100
AcDbEntity
  8
1
  6
Continuous
 62
     7
100
AcDbLine
 10
-75.41143624945968
 20
132.6262945436459
 30
0.0
 11
-29.98934192612872
 21
132.6262945436459
 31
0.0
  0
LINE
  5
281
330
27E
100
AcDbEntity
  8
1
  6
Continuous
 62
     7
100
AcDbLine
 10
-50.98934192612872
 20
75.6262945436459
 30
0.0
 11
-29.98934192612872
 21
75.6262945436459
 31
0.0
  0
SOLID
  5
282
330
27E
100
AcDbEntity
  8
1
 62
     7
100
AcDbTrace
 10
-31.52855818457284
 20
129.1262945436459
 30
0.0
 11
-32.45012566768461
 21
129.1262945436459
 31
0.0
 12
-31.98934192612872
 22
132.6262945436459
 32
0.0
 13
-31.98934192612872
 23
132.6262945436459
 33
0.0
  0
SOLID
  5
283
330
27E
100
AcDbEntity
  8
1
 62
     7
100
AcDbTrace
 10
-32.45012566768461
 20
79.1262945436459
 30
0.0
 11
-31.52855818457284
 21
79.1262945436459
 31
0.0
 12
-31.98934192612872
 22
75.6262945436459
 32
0.0
 13
-31.98934192612872
 23
75.6262945436459
 33
0.0
  0
MTEXT
  5
284
330
27E
100
AcDbEntity
  8
1
 62
     7
100
AcDbMText
 10
-33.48934192612872
 20
101.5012945436459
 30
0.0
 40
3.5
 41
0.0
 71
     7
 72
     1
  1
57
  7
CONVERTER_11
 11
0.0
 21
1.0
 31
0.0
 73
     1
 44
0.60024009603842
  0
ENDBLK
  5
286
330
27E
100
AcDbEntity
  8
0
100
AcDbBlockEnd
  0
BLOCK
  5
290
330
289
100
AcDbEntity
  8
0
100
AcDbBlockBegin
  2
*D11
 70
     1
 10
0.0
 20
0.0
 30
0.0
  3
*D11
  1
*D11
  0
LINE
  5
28A
330
289
100
AcDbEntity
  8
1
  6
Continuous
 62
     7
100
AcDbLine
 10
-96.98934192612872
 20
65.62629454364591
 30
0.0
 11
-56.98934192612872
 21
65.62629454364591
 31
0.0
  0
LINE
  5
28B
330
289
100
AcDbEntity
  8
1
  6
Continuous
 62
     7
100
AcDbLine
 10
-96.98934192612872
 20
72.3121665684169
 30
0.0
 11
-96.98934192612872
 21
63.62629454364591
 31
0.0
  0
LINE
  5
28C
330
289
100
AcDbEntity
  8
1
  6
Continuous
 62
     7
100
AcDbLine
 10
-56.98934192612872
 20
72.3121665684169
 30
0.0
 11
-56.98934192612872
 21
63.62629454364591
 31
0.0
  0
SOLID
  5
28D
330
289
100
AcDbEntity
  8
1
 62
     7
100
AcDbTrace
 10
-93.48934192612872
 20
66.0870782852018
 30
0.0
 11
-93.48934192612872
 21
65.16551080209003
 31
0.0
 12
-96.98934192612872
 22
65.62629454364591
 32
0.0
 13
-96.98934192612872
 23
65.62629454364591
 33
0.0
  0
SOLID
  5
28E
330
289
100
AcDbEntity
  8
1
 62
     7
100
AcDbTrace
 10
-60.48934192612872
 20
65.16551080209003
 30
0.0
 11
-60.48934192612872
 21
66.0870782852018
 31
0.0
 12
-56.98934192612872
 22
65.62629454364591
 32
0.0
 13
-56.98934192612872
 23
65.62629454364591
 33
0.0
  0
MTEXT
  5
28F
330
289
100
AcDbEntity
  8
1
 62
     7
100
AcDbMText
 10
-79.61434192612872
 20
67.12629454364591
 30
0.0
 40
3.5
 41
0.0
 71
     7
 72
     1
  1
40
  7
CONVERTER_11
 11
0.9999999999970619
 21
2.424068405545306E-6
 31
0.0
 73
     1
 44
0.60024009603842
  0
ENDBLK
  5
291
330
289
100
AcDbEntity
  8
0
100
AcDbBlockEnd
  0
BLOCK
  5
29B
330
294
100
AcDbEntity
  8
0
100
AcDbBlockBegin
  2
*D12
 70
     1
 10
0.0
 20
0.0
 30
0.0
  3
*D12
  1
*D12
  0
LINE
  5
295
330
294
100
AcDbEntity
  8
1
  6
Continuous
 62
     7
100
AcDbLine
 10
-264.98934227882
 20
55.62629454364591
 30
0.0
 11
-163.98934227882
 21
55.62629454364591
 31
0.0
  0
LINE
  5
296
330
294
100
AcDbEntity
  8
1
  6
Continuous
 62
     7
100
AcDbLine
 10
-264.98934227882
 20
75.62629454364591
 30
0.0
 11
-264.98934227882
 21
53.62629454364591
 31
0.0
  0
LINE
  5
297
330
294
100
AcDbEntity
  8
1
  6
Continuous
 62
     7
100
AcDbLine
 10
-163.98934227882
 20
75.62629454364588
 30
0.0
 11
-163.98934227882
 21
53.62629454364591
 31
0.0
  0
SOLID
  5
298
330
294
100
AcDbEntity
  8
1
 62
     7
100
AcDbTrace
 10
-261.48934227882
 20
56.0870782852018
 30
0.0
 11
-261.48934227882
 21
55.16551080209003
 31
0.0
 12
-264.98934227882
 22
55.62629454364591
 32
0.0
 13
-264.98934227882
 23
55.62629454364591
 33
0.0
  0
SOLID
  5
299
330
294
100
AcDbEntity
  8
1
 62
     7
100
AcDbTrace
 10
-167.48934227882
 20
55.16551080209003
 30
0.0
 11
-167.48934227882
 21
56.0870782852018
 31
0.0
 12
-163.98934227882
 22
55.62629454364591
 32
0.0
 13
-163.98934227882
 23
55.62629454364591
 33
0.0
  0
MTEXT
  5
29A
330
294
100
AcDbEntity
  8
1
 62
     7
100
AcDbMText
 10
-217.63934227882
 20
57.12629454364591
 30
0.0
 40
3.5
 41
0.0
 71
     7
 72
     1
  1
101
  7
CONVERTER_11
 11
0.9999999999970619
 21
2.424068405545306E-6
 31
0.0
 73
     1
 44
0.60024009603842
  0
ENDBLK
  5
29C
330
294
100
AcDbEntity
  8
0
100
AcDbBlockEnd
  0
ENDSEC
  0
SECTION
  2
ENTITIES
  0
INSERT
  5
80
330
1F
100
AcDbEntity
  8
0
100
AcDbBlockReference
  2
JPP_25_L21__1
 10
-478.789340887196
 20
-75.87370517503709
 30
0.0
  0
INSERT
  5
81
330
1F
100
AcDbEntity
  8
1
100
AcDbBlockReference
  2
_formato_A4
 10
0.0
 20
0.0
 30
0.0
  0
ENDSEC
  0
SECTION
  2
OBJECTS
  0
DICTIONARY
  5
C
330
0
100
AcDbDictionary
281
     1
  3
ACAD_GROUP
350
D
  3
ACAD_LAYOUT
350
1A
  3
ACAD_MATERIAL
350
43
  3
ACAD_MLEADERSTYLE
350
2FC
  3
ACAD_MLINESTYLE
350
17
  3
ACAD_PLOTSETTINGS
350
19
  3
ACAD_PLOTSTYLENAME
350
E
  3
ACAD_SCALELIST
350
47
  3
ACAD_VISUALSTYLE
350
2A
  3
AcDbVariableDictionary
350
2FA
  0
DICTIONARY
  5
D
102
{ACAD_REACTORS
330
C
102
}
330
C
100
AcDbDictionary
281
     1
  0
DICTIONARY
  5
1A
102
{ACAD_REACTORS
330
C
102
}
330
C
100
AcDbDictionary
281
     1
  3
Layout1
350
1E
  3
Layout2
350
26
  3
Model
350
22
  0
DICTIONARY
  5
43
102
{ACAD_REACTORS
330
C
102
}
330
C
100
AcDbDictionary
281
     1
  3
ByBlock
350
45
  3
ByLayer
350
44
  3
Global
350
46
  0
DICTIONARY
  5
2FC
102
{ACAD_REACTORS
330
C
102
}
330
C
100
AcDbDictionary
281
     1
  0
DICTIONARY
  5
17
102
{ACAD_REACTORS
330
C
102
}
330
C
100
AcDbDictionary
281
     1
  3
Standard
350
18
  0
DICTIONARY
  5
19
102
{ACAD_REACTORS
330
C
102
}
330
C
100
AcDbDictionary
281
     1
  0
ACDBDICTIONARYWDFLT
  5
E
102
{ACAD_REACTORS
330
C
102
}
330
C
100
AcDbDictionary
281
     1
  3
Normal
350
F
100
AcDbDictionaryWithDefault
340
F
  0
DICTIONARY
  5
47
102
{ACAD_REACTORS
330
C
102
}
330
C
100
AcDbDictionary
281
     1
  3
A0
350
48
  3
A1
350
49
  3
A2
350
4A
  3
A3
350
4B
  3
A4
350
4C
  3
A5
350
4D
  3
A6
350
4E
  3
A7
350
4F
  3
A8
350
50
  3
A9
350
51
  3
B0
350
52
  3
B1
350
53
  3
B2
350
54
  3
B3
350
55
  3
B4
350
56
  3
B5
350
57
  3
B6
350
58
  3
B7
350
59
  3
B8
350
5A
  3
B9
350
5B
  3
C0
350
5C
  3
C1
350
5D
  3
C2
350
5E
  3
C3
350
5F
  3
C4
350
60
  3
C5
350
61
  3
C6
350
62
  3
C7
350
63
  3
C8
350
64
  3
C9
350
65
  3
D0
350
66
  3
D1
350
67
  3
D2
350
68
  0
DICTIONARY
  5
2A
102
{ACAD_REACTORS
330
C
102
}
330
C
100
AcDbDictionary
281
     1
  3
2dWireframe
350
2F
  3
Basic
350
32
  3
Brighten
350
36
  3
ColorChange
350
3A
  3
Conceptual
350
34
  3
Dim
350
35
  3
EdgeColorOff
350
3D
  3
Facepattern
350
39
  3
Flat
350
2B
  3
FlatWithEdges
350
2C
  3
Gouraud
350
2D
  3
GouraudWithEdges
350
2E
  3
Hidden
350
31
  3
JitterOff
350
3B
  3
Linepattern
350
38
  3
OverhangOff
350
3C
  3
Realistic
350
33
  3
Shaded
350
42
  3
Shaded with edges
350
41
  3
Shades of Gray
350
3E
  3
Sketchy
350
3F
  3
Thicken
350
37
  3
Wireframe
350
30
  3
X-Ray
350
40
  0
DICTIONARY
  5
2FA
102
{ACAD_REACTORS
330
C
102
}
330
C
100
AcDbDictionary
281
     1
  3
CANNOSCALE
350
301
  3
DIMASSOC
350
2FF
  3
HIDETEXT
350
300
  3
MSLTSCALE
350
302
  0
LAYOUT
  5
1E
102
{ACAD_REACTORS
330
1A
102
}
330
1A
100
AcDbPlotSettings
  1

  2
none_device
  4

  6

 40
0.0
 41
0.0
 42
0.0
 43
0.0
 44
0.0
 45
0.0
 46
0.0
 47
0.0
 48
0.0
 49
0.0
140
0.0
141
0.0
142
1.0
143
1.0
 70
   688
 72
     0
 73
     0
 74
     5
  7

 75
    16
147
1.0
148
0.0
149
0.0
100
AcDbLayout
  1
Layout1
 70
     1
 71
     1
 10
0.0
 20
0.0
 11
12.0
 21
9.0
 12
0.0
 22
0.0
 32
0.0
 14
1.00000000000000E+20
 24
1.00000000000000E+20
 34
1.00000000000000E+20
 15
-1.00000000000000E+20
 25
-1.00000000000000E+20
 35
-1.00000000000000E+20
146
0.0
 13
0.0
 23
0.0
 33
0.0
 16
1.0
 26
0.0
 36
0.0
 17
0.0
 27
1.0
 37
0.0
 76
     0
330
1B
  0
LAYOUT
  5
26
102
{ACAD_REACTORS
330
1A
102
}
330
1A
100
AcDbPlotSettings
  1

  2
none_device
  4

  6

 40
0.0
 41
0.0
 42
0.0
 43
0.0
 44
0.0
 45
0.0
 46
0.0
 47
0.0
 48
0.0
 49
0.0
140
0.0
141
0.0
142
1.0
143
1.0
 70
   688
 72
     0
 73
     0
 74
     5
  7

 75
    16
147
1.0
148
0.0
149
0.0
100
AcDbLayout
  1
Layout2
 70
     1
 71
     2
 10
0.0
 20
0.0
 11
0.0
 21
0.0
 12
0.0
 22
0.0
 32
0.0
 14
0.0
 24
0.0
 34
0.0
 15
0.0
 25
0.0
 35
0.0
146
0.0
 13
0.0
 23
0.0
 33
0.0
 16
1.0
 26
0.0
 36
0.0
 17
0.0
 27
1.0
 37
0.0
 76
     0
330
23
  0
LAYOUT
  5
22
102
{ACAD_REACTORS
330
1A
102
}
330
1A
100
AcDbPlotSettings
  1

  2
none_device
  4
Letter_(8.50_x_11.00_Inches)
  6

 40
6.35
 41
6.35
 42
6.35000508
 43
6.35000508
 44
215.9
 45
279.4
 46
0.0
 47
0.0
 48
0.0
 49
0.0
140
0.0
141
0.0
142
1.0
143
1.0
 70
  1712
 72
     0
 73
     0
 74
     0
  7

 75
     0
147
1.0
148
0.0
149
0.0
100
AcDbLayout
  1
Model
 70
     1
 71
     0
 10
0.0
 20
0.0
 11
12.0
 21
9.0
 12
0.0
 22
0.0
 32
0.0
 14
-297.0000000000001
 24
0.0
 34
0.0
 15
0.0
 25
210.0000000000001
 35
0.0
146
0.0
 13
0.0
 23
0.0
 33
0.0
 16
1.0
 26
0.0
 36
0.0
 17
0.0
 27
1.0
 37
0.0
 76
     0
330
1F
331
29
  0
MATERIAL
  5
45
102
{ACAD_REACTORS
330
43
102
}
102
{ACAD_XDICTIONARY
360
335
102
}
330
43
100
AcDbMaterial
  1
ByBlock
  0
MATERIAL
  5
44
102
{ACAD_REACTORS
330
43
102
}
102
{ACAD_XDICTIONARY
360
333
102
}
330
43
100
AcDbMaterial
  1
ByLayer
  0
MATERIAL
  5
46
102
{ACAD_REACTORS
330
43
102
}
102
{ACAD_XDICTIONARY
360
337
102
}
330
43
100
AcDbMaterial
  1
Global
  0
MLINESTYLE
  5
18
102
{ACAD_REACTORS
330
17
102
}
330
17
100
AcDbMlineStyle
  2
Standard
 70
     0
  3

 62
   256
 51
90.0
 52
90.0
 71
     2
 49
0.5
 62
   256
  6
BYLAYER
 49
-0.5
 62
   256
  6
BYLAYER
  0
ACDBPLACEHOLDER
  5
F
102
{ACAD_REACTORS
330
E
102
}
330
E
  0
SCALE
  5
48
102
{ACAD_REACTORS
330
47
102
}
330
47
100
AcDbScale
 70
     0
300
1:1
140
1.0
141
1.0
290
     1
  0
SCALE
  5
49
102
{ACAD_REACTORS
330
47
102
}
330
47
100
AcDbScale
 70
     0
300
1:2
140
1.0
141
2.0
290
     0
  0
SCALE
  5
4A
102
{ACAD_REACTORS
330
47
102
}
330
47
100
AcDbScale
 70
     0
300
1:4
140
1.0
141
4.0
290
     0
  0
SCALE
  5
4B
102
{ACAD_REACTORS
330
47
102
}
330
47
100
AcDbScale
 70
     0
300
1:5
140
1.0
141
5.0
290
     0
  0
SCALE
  5
4C
102
{ACAD_REACTORS
330
47
102
}
330
47
100
AcDbScale
 70
     0
300
1:8
140
1.0
141
8.0
290
     0
  0
SCALE
  5
4D
102
{ACAD_REACTORS
330
47
102
}
330
47
100
AcDbScale
 70
     0
300
1:10
140
1.0
141
10.0
290
     0
  0
SCALE
  5
4E
102
{ACAD_REACTORS
330
47
102
}
330
47
100
AcDbScale
 70
     0
300
1:16
140
1.0
141
16.0
290
     0
  0
SCALE
  5
4F
102
{ACAD_REACTORS
330
47
102
}
330
47
100
AcDbScale
 70
     0
300
1:20
140
1.0
141
20.0
290
     0
  0
SCALE
  5
50
102
{ACAD_REACTORS
330
47
102
}
330
47
100
AcDbScale
 70
     0
300
1:30
140
1.0
141
30.0
290
     0
  0
SCALE
  5
51
102
{ACAD_REACTORS
330
47
102
}
330
47
100
AcDbScale
 70
     0
300
1:40
140
1.0
141
40.0
290
     0
  0
SCALE
  5
52
102
{ACAD_REACTORS
330
47
102
}
330
47
100
AcDbScale
 70
     0
300
1:50
140
1.0
141
50.0
290
     0
  0
SCALE
  5
53
102
{ACAD_REACTORS
330
47
102
}
330
47
100
AcDbScale
 70
     0
300
1:100
140
1.0
141
100.0
290
     0
  0
SCALE
  5
54
102
{ACAD_REACTORS
330
47
102
}
330
47
100
AcDbScale
 70
     0
300
2:1
140
2.0
141
1.0
290
     0
  0
SCALE
  5
55
102
{ACAD_REACTORS
330
47
102
}
330
47
100
AcDbScale
 70
     0
300
4:1
140
4.0
141
1.0
290
     0
  0
SCALE
  5
56
102
{ACAD_REACTORS
330
47
102
}
330
47
100
AcDbScale
 70
     0
300
8:1
140
8.0
141
1.0
290
     0
  0
SCALE
  5
57
102
{ACAD_REACTORS
330
47
102
}
330
47
100
AcDbScale
 70
     0
300
10:1
140
10.0
141
1.0
290
     0
  0
SCALE
  5
58
102
{ACAD_REACTORS
330
47
102
}
330
47
100
AcDbScale
 70
     0
300
100:1
140
100.0
141
1.0
290
     0
  0
SCALE
  5
59
102
{ACAD_REACTORS
330
47
102
}
330
47
100
AcDbScale
 70
     0
300
1/128" = 1'-0"
140
0.0078125
141
12.0
290
     0
  0
SCALE
  5
5A
102
{ACAD_REACTORS
330
47
102
}
330
47
100
AcDbScale
 70
     0
300
1/64" = 1'-0"
140
0.015625
141
12.0
290
     0
  0
SCALE
  5
5B
102
{ACAD_REACTORS
330
47
102
}
330
47
100
AcDbScale
 70
     0
300
1/32" = 1'-0"
140
0.03125
141
12.0
290
     0
  0
SCALE
  5
5C
102
{ACAD_REACTORS
330
47
102
}
330
47
100
AcDbScale
 70
     0
300
1/16" = 1'-0"
140
0.0625
141
12.0
290
     0
  0
SCALE
  5
5D
102
{ACAD_REACTORS
330
47
102
}
330
47
100
AcDbScale
 70
     0
300
3/32" = 1'-0"
140
0.09375
141
12.0
290
     0
  0
SCALE
  5
5E
102
{ACAD_REACTORS
330
47
102
}
330
47
100
AcDbScale
 70
     0
300
1/8" = 1'-0"
140
0.125
141
12.0
290
     0
  0
SCALE
  5
5F
102
{ACAD_REACTORS
330
47
102
}
330
47
100
AcDbScale
 70
     0
300
3/16" = 1'-0"
140
0.1875
141
12.0
290
     0
  0
SCALE
  5
60
102
{ACAD_REACTORS
330
47
102
}
330
47
100
AcDbScale
 70
     0
300
1/4" = 1'-0"
140
0.25
141
12.0
290
     0
  0
SCALE
  5
61
102
{ACAD_REACTORS
330
47
102
}
330
47
100
AcDbScale
 70
     0
300
3/8" = 1'-0"
140
0.375
141
12.0
290
     0
  0
SCALE
  5
62
102
{ACAD_REACTORS
330
47
102
}
330
47
100
AcDbScale
 70
     0
300
1/2" = 1'-0"
140
0.5
141
12.0
290
     0
  0
SCALE
  5
63
102
{ACAD_REACTORS
330
47
102
}
330
47
100
AcDbScale
 70
     0
300
3/4" = 1'-0"
140
0.75
141
12.0
290
     0
  0
SCALE
  5
64
102
{ACAD_REACTORS
330
47
102
}
330
47
100
AcDbScale
 70
     0
300
1" = 1'-0"
140
1.0
141
12.0
290
     0
  0
SCALE
  5
65
102
{ACAD_REACTORS
330
47
102
}
330
47
100
AcDbScale
 70
     0
300
1-1/2" = 1'-0"
140
1.5
141
12.0
290
     0
  0
SCALE
  5
66
102
{ACAD_REACTORS
330
47
102
}
330
47
100
AcDbScale
 70
     0
300
3" = 1'-0"
140
3.0
141
12.0
290
     0
  0
SCALE
  5
67
102
{ACAD_REACTORS
330
47
102
}
330
47
100
AcDbScale
 70
     0
300
6" = 1'-0"
140
6.0
141
12.0
290
     0
  0
SCALE
  5
68
102
{ACAD_REACTORS
330
47
102
}
330
47
100
AcDbScale
 70
     0
300
1'-0" = 1'-0"
140
12.0
141
12.0
290
     0
  0
VISUALSTYLE
  5
2F
102
{ACAD_REACTORS
330
2A
102
}
102
{ACAD_XDICTIONARY
360
30B
102
}
330
2A
100
AcDbVisualStyle
  2
2dWireframe
 70
     4
 71
     0
 72
     2
 73
     0
 90
        0
 40
0.6
 41
30.0
 62
     5
 63
     7
 74
     1
 91
        4
 64
     7
 65
   257
 75
     1
175
     1
 42
1.0
 92
        0
 66
   257
 43
1.0
 76
     1
 77
     6
 78
     2
 67
     7
 79
     5
170
     0
171
     0
290
     0
174
     0
 93
        1
 44
0.0
173
     0
291
     0
 45
0.0
1001
ACAD
1000
AcDbSavedByObjectVersion
1070
     0
  0
VISUALSTYLE
  5
32
102
{ACAD_REACTORS
330
2A
102
}
102
{ACAD_XDICTIONARY
360
311
102
}
330
2A
100
AcDbVisualStyle
  2
Basic
 70
     7
 71
     1
 72
     0
 73
     1
 90
        0
 40
0.6
 41
30.0
 62
     5
 63
     7
 74
     0
 91
        4
 64
     7
 65
   257
 75
     1
175
     1
 42
1.0
 92
        8
 66
     7
 43
1.0
 76
     1
 77
     6
 78
     2
 67
     7
 79
     5
170
     0
171
     0
290
     0
174
     0
 93
        1
 44
0.0
173
     0
291
     1
 45
0.0
1001
ACAD
1000
AcDbSavedByObjectVersion
1070
     0
  0
VISUALSTYLE
  5
36
102
{ACAD_REACTORS
330
2A
102
}
102
{ACAD_XDICTIONARY
360
319
102
}
330
2A
100
AcDbVisualStyle
  2
Brighten
 70
    12
 71
     2
 72
     2
 73
     0
 90
        0
 40
0.6
 41
30.0
 62
     5
 63
     7
 74
     1
 91
        4
 64
     7
 65
   257
 75
     1
175
     1
 42
1.0
 92
        8
 66
     7
 43
1.0
 76
     1
 77
     6
 78
     2
 67
     7
 79
     5
170
     0
171
     0
290
     0
174
     0
 93
        1
 44
50.0
173
     0
291
     1
 45
0.0
1001
ACAD
1000
AcDbSavedByObjectVersion
1070
     0
  0
VISUALSTYLE
  5
3A
102
{ACAD_REACTORS
330
2A
102
}
102
{ACAD_XDICTIONARY
360
321
102
}
330
2A
100
AcDbVisualStyle
  2
ColorChange
 70
    16
 71
     2
 72
     2
 73
     3
 90
        0
 40
0.6
 41
30.0
 62
     5
 63
     8
 74
     1
 91
        4
 64
     7
 65
   257
 75
     1
175
     1
 42
1.0
 92
        8
 66
     8
 43
1.0
 76
     1
 77
     6
 78
     2
 67
     7
 79
     5
170
     0
171
     0
290
     0
174
     0
 93
        1
 44
0.0
173
     0
291
     1
 45
0.0
1001
ACAD
1000
AcDbSavedByObjectVersion
1070
     0
  0
VISUALSTYLE
  5
34
102
{ACAD_REACTORS
330
2A
102
}
102
{ACAD_XDICTIONARY
360
315
102
}
330
2A
100
AcDbVisualStyle
  2
Conceptual
 70
     9
 71
     3
 72
     2
 73
     0
 90
        0
 40
0.6
 41
30.0
 62
     5
 63
     7
 74
     2
 91
        2
 64
     7
 65
   257
 75
     1
175
     1
 42
179.0
 92
        8
 66
     7
 43
1.0
 76
     1
 77
     6
 78
     2
 67
     7
 79
     3
170
     0
171
     0
290
     0
174
     0
 93
        1
 44
0.0
173
     0
291
     0
 45
0.0
1001
ACAD
1000
AcDbSavedByObjectVersion
1070
     0
  0
VISUALSTYLE
  5
35
102
{ACAD_REACTORS
330
2A
102
}
102
{ACAD_XDICTIONARY
360
317
102
}
330
2A
100
AcDbVisualStyle
  2
Dim
 70
    11
 71
     2
 72
     2
 73
     0
 90
        0
 40
0.6
 41
30.0
 62
     5
 63
     7
 74
     1
 91
        4
 64
     7
 65
   257
 75
     1
175
     1
 42
1.0
 92
        8
 66
     7
 43
1.0
 76
     1
 77
     6
 78
     2
 67
     7
 79
     5
170
     0
171
     0
290
     0
174
     0
 93
        1
 44
-50.0
173
     0
291
     1
 45
0.0
1001
ACAD
1000
AcDbSavedByObjectVersion
1070
     0
  0
VISUALSTYLE
  5
3D
102
{ACAD_REACTORS
330
2A
102
}
102
{ACAD_XDICTIONARY
360
327
102
}
330
2A
100
AcDbVisualStyle
  2
EdgeColorOff
 70
    22
 71
     2
 72
     2
 73
     0
 90
        0
 40
0.6
 41
30.0
 62
     5
 63
     7
 74
     1
 91
        4
 64
     7
 65
   257
 75
     1
175
     1
 42
1.0
 92
        8
 66
     7
 43
1.0
 76
     1
 77
     6
 78
     2
 67
     7
 79
     5
170
     0
171
     0
290
     0
174
     0
 93
        1
 44
0.0
173
     0
291
     1
 45
0.0
1001
ACAD
1000
AcDbSavedByObjectVersion
1070
     0
  0
VISUALSTYLE
  5
39
102
{ACAD_REACTORS
330
2A
102
}
102
{ACAD_XDICTIONARY
360
31F
102
}
330
2A
100
AcDbVisualStyle
  2
Facepattern
 70
    15
 71
     2
 72
     2
 73
     0
 90
        0
 40
0.6
 41
30.0
 62
     5
 63
     7
 74
     1
 91
        4
 64
     7
 65
   257
 75
     1
175
     1
 42
1.0
 92
        8
 66
     7
 43
1.0
 76
     1
 77
     6
 78
     2
 67
     7
 79
     5
170
     0
171
     0
290
     0
174
     0
 93
        1
 44
0.0
173
     0
291
     1
 45
0.0
1001
ACAD
1000
AcDbSavedByObjectVersion
1070
     0
  0
VISUALSTYLE
  5
2B
102
{ACAD_REACTORS
330
2A
102
}
102
{ACAD_XDICTIONARY
360
303
102
}
330
2A
100
AcDbVisualStyle
  2
Flat
 70
     0
 71
     2
 72
     1
 73
     1
 90
        2
 40
0.6
 41
30.0
 62
     5
 63
     7
 74
     0
 91
        0
 64
     7
 65
   257
 75
     1
175
     1
 42
1.0
 92
        8
 66
     7
 43
1.0
 76
     1
 77
     6
 78
     2
 67
     7
 79
     5
170
     0
171
     0
290
     0
174
     0
 93
       13
 44
0.0
173
     0
291
     1
 45
0.0
1001
ACAD
1000
AcDbSavedByObjectVersion
1070
     0
  0
VISUALSTYLE
  5
2C
102
{ACAD_REACTORS
330
2A
102
}
102
{ACAD_XDICTIONARY
360
305
102
}
330
2A
100
AcDbVisualStyle
  2
FlatWithEdges
 70
     1
 71
     2
 72
     1
 73
     1
 90
        2
 40
0.6
 41
30.0
 62
     5
 63
     7
 74
     1
 91
        0
 64
     7
 65
   257
 75
     1
175
     1
 42
1.0
 92
        0
 66
   257
 43
1.0
 76
     1
 77
     6
 78
     2
 67
     7
 79
     5
170
     0
171
     0
290
     0
174
     0
 93
       13
 44
0.0
173
     0
291
     1
 45
0.0
1001
ACAD
1000
AcDbSavedByObjectVersion
1070
     0
  0
VISUALSTYLE
  5
2D
102
{ACAD_REACTORS
330
2A
102
}
102
{ACAD_XDICTIONARY
360
307
102
}
330
2A
100
AcDbVisualStyle
  2
Gouraud
 70
     2
 71
     2
 72
     2
 73
     1
 90
        2
 40
0.6
 41
30.0
 62
     5
 63
     7
 74
     0
 91
        0
 64
     7
 65
   257
 75
     1
175
     1
 42
1.0
 92
        0
 66
     7
 43
1.0
 76
     1
 77
     6
 78
     2
 67
     7
 79
     5
170
     0
171
     0
290
     0
174
     0
 93
       13
 44
0.0
173
     0
291
     1
 45
0.0
1001
ACAD
1000
AcDbSavedByObjectVersion
1070
     0
  0
VISUALSTYLE
  5
2E
102
{ACAD_REACTORS
330
2A
102
}
102
{ACAD_XDICTIONARY
360
309
102
}
330
2A
100
AcDbVisualStyle
  2
GouraudWithEdges
 70
     3
 71
     2
 72
     2
 73
     1
 90
        2
 40
0.6
 41
30.0
 62
     5
 63
     7
 74
     1
 91
        0
 64
     7
 65
   257
 75
     1
175
     1
 42
1.0
 92
        0
 66
   257
 43
1.0
 76
     1
 77
     6
 78
     2
 67
     7
 79
     5
170
     0
171
     0
290
     0
174
     0
 93
       13
 44
0.0
173
     0
291
     1
 45
0.0
1001
ACAD
1000
AcDbSavedByObjectVersion
1070
     0
  0
VISUALSTYLE
  5
31
102
{ACAD_REACTORS
330
2A
102
}
102
{ACAD_XDICTIONARY
360
30F
102
}
330
2A
100
AcDbVisualStyle
  2
Hidden
 70
     6
 71
     1
 72
     2
 73
     2
 90
        0
 40
0.6
 41
30.0
 62
     5
 63
     7
 74
     2
 91
        2
 64
     7
 65
   257
 75
     2
175
     1
 42
40.0
 92
        0
 66
   257
 43
1.0
 76
     1
 77
     6
 78
     2
 67
     7
 79
     3
170
     0
171
     0
290
     0
174
     0
 93
        1
 44
0.0
173
     0
291
     0
 45
0.0
1001
ACAD
1000
AcDbSavedByObjectVersion
1070
     0
  0
VISUALSTYLE
  5
3B
102
{ACAD_REACTORS
330
2A
102
}
102
{ACAD_XDICTIONARY
360
323
102
}
330
2A
100
AcDbVisualStyle
  2
JitterOff
 70
    20
 71
     2
 72
     2
 73
     0
 90
        0
 40
0.6
 41
30.0
 62
     5
 63
     7
 74
     1
 91
        4
 64
     7
 65
   257
 75
     1
175
     1
 42
1.0
 92
       10
 66
     7
 43
1.0
 76
     1
 77
     6
 78
     2
 67
     7
 79
     5
170
     0
171
     0
290
     0
174
     0
 93
        1
 44
0.0
173
     0
291
     1
 45
0.0
1001
ACAD
1000
AcDbSavedByObjectVersion
1070
     0
  0
VISUALSTYLE
  5
38
102
{ACAD_REACTORS
330
2A
102
}
102
{ACAD_XDICTIONARY
360
31D
102
}
330
2A
100
AcDbVisualStyle
  2
Linepattern
 70
    14
 71
     2
 72
     2
 73
     0
 90
        0
 40
0.6
 41
30.0
 62
     5
 63
     7
 74
     1
 91
        4
 64
     7
 65
   257
 75
     7
175
     7
 42
1.0
 92
        8
 66
     7
 43
1.0
 76
     1
 77
     6
 78
     2
 67
     7
 79
     5
170
     0
171
     0
290
     0
174
     0
 93
        1
 44
0.0
173
     0
291
     1
 45
0.0
1001
ACAD
1000
AcDbSavedByObjectVersion
1070
     0
  0
VISUALSTYLE
  5
3C
102
{ACAD_REACTORS
330
2A
102
}
102
{ACAD_XDICTIONARY
360
325
102
}
330
2A
100
AcDbVisualStyle
  2
OverhangOff
 70
    21
 71
     2
 72
     2
 73
     0
 90
        0
 40
0.6
 41
30.0
 62
     5
 63
     7
 74
     1
 91
        4
 64
     7
 65
   257
 75
     1
175
     1
 42
1.0
 92
        9
 66
     7
 43
1.0
 76
     1
 77
     6
 78
     2
 67
     7
 79
     5
170
     0
171
     0
290
     0
174
     0
 93
        1
 44
0.0
173
     0
291
     1
 45
0.0
1001
ACAD
1000
AcDbSavedByObjectVersion
1070
     0
  0
VISUALSTYLE
  5
33
102
{ACAD_REACTORS
330
2A
102
}
102
{ACAD_XDICTIONARY
360
313
102
}
330
2A
100
AcDbVisualStyle
  2
Realistic
 70
     8
 71
     2
 72
     3
 73
     0
 90
        2
 40
0.6
 41
30.0
 62
     5
 63
     7
 74
     0
 91
        0
 64
     7
 65
   257
 75
     1
175
     1
 42
1.0
 92
        8
 66
   257
 43
1.0
 76
     1
 77
     6
 78
     2
 67
     7
 79
     3
170
     0
171
     0
290
     0
174
     0
 93
       13
 44
0.0
173
     0
291
     0
 45
0.0
1001
ACAD
1000
AcDbSavedByObjectVersion
1070
     0
  0
VISUALSTYLE
  5
42
102
{ACAD_REACTORS
330
2A
102
}
102
{ACAD_XDICTIONARY
360
331
102
}
330
2A
100
AcDbVisualStyle
  2
Shaded
 70
    27
 71
     2
 72
     2
 73
     1
 90
        2
 40
0.6
 41
30.0
 62
     5
 63
     7
 74
     0
 91
        4
 64
     7
 65
   257
 75
     1
175
     1
 42
1.0
 92
        8
 66
   257
 43
1.0
 76
     1
 77
     6
 78
     2
 67
     8
 79
     3
170
     0
171
     0
290
     0
174
     0
 93
        5
 44
0.0
173
     0
291
     0
 45
0.0
1001
ACAD
1000
AcDbSavedByObjectVersion
1070
     0
  0
VISUALSTYLE
  5
41
102
{ACAD_REACTORS
330
2A
102
}
102
{ACAD_XDICTIONARY
360
32F
102
}
330
2A
100
AcDbVisualStyle
  2
Shaded with edges
 70
    26
 71
     2
 72
     2
 73
     1
 90
        2
 40
0.6
 41
30.0
 62
     5
 63
     7
 74
     1
 91
       10
 64
     7
 65
   257
 75
     2
175
     1
 42
1.0
 92
        8
 66
   257
 43
1.0
 76
     1
 77
     6
 78
     2
 67
     7
 79
     3
170
     0
171
     0
290
     0
174
     0
 93
        5
 44
0.0
173
     0
291
     0
 45
0.0
1001
ACAD
1000
AcDbSavedByObjectVersion
1070
     0
  0
VISUALSTYLE
  5
3E
102
{ACAD_REACTORS
330
2A
102
}
102
{ACAD_XDICTIONARY
360
329
102
}
330
2A
100
AcDbVisualStyle
  2
Shades of Gray
 70
    23
 71
     2
 72
     2
 73
     3
 90
        0
 40
0.6
 41
30.0
 62
     5
 63
     7
 74
     2
 91
        2
 64
     7
 65
     7
 75
     1
175
     1
 42
40.0
 92
        8
 66
     7
 43
1.0
 76
     1
 77
     6
 78
     2
 67
     7
 79
     3
170
     0
171
     0
290
     0
174
     0
 93
        1
 44
0.0
173
     0
291
     0
 45
0.0
1001
ACAD
1000
AcDbSavedByObjectVersion
1070
     0
  0
VISUALSTYLE
  5
3F
102
{ACAD_REACTORS
330
2A
102
}
102
{ACAD_XDICTIONARY
360
32B
102
}
330
2A
100
AcDbVisualStyle
  2
Sketchy
 70
    24
 71
     1
 72
     2
 73
     2
 90
        0
 40
0.6
 41
30.0
 62
     5
 63
     7
 74
     2
 91
        2
 64
     7
 65
     7
 75
     1
175
     1
 42
40.0
 92
       11
 66
     7
 43
1.0
 76
     1
 77
     6
 78
     2
 67
     7
 79
     6
170
     0
171
     0
290
     0
174
     0
 93
        1
 44
0.0
173
     0
291
     0
 45
0.0
1001
ACAD
1000
AcDbSavedByObjectVersion
1070
     0
  0
VISUALSTYLE
  5
37
102
{ACAD_REACTORS
330
2A
102
}
102
{ACAD_XDICTIONARY
360
31B
102
}
330
2A
100
AcDbVisualStyle
  2
Thicken
 70
    13
 71
     2
 72
     2
 73
     0
 90
        0
 40
0.6
 41
30.0
 62
     5
 63
     7
 74
     1
 91
        4
 64
     7
 65
   257
 75
     1
175
     1
 42
1.0
 92
       12
 66
     7
 43
1.0
 76
     1
 77
     6
 78
     2
 67
     7
 79
     5
170
     0
171
     0
290
     0
174
     0
 93
        1
 44
0.0
173
     0
291
     1
 45
0.0
1001
ACAD
1000
AcDbSavedByObjectVersion
1070
     0
  0
VISUALSTYLE
  5
30
102
{ACAD_REACTORS
330
2A
102
}
102
{ACAD_XDICTIONARY
360
30D
102
}
330
2A
100
AcDbVisualStyle
  2
Wireframe
 70
     5
 71
     0
 72
     2
 73
     0
 90
        0
 40
0.6
 41
30.0
 62
     5
 63
     7
 74
     1
 91
        4
 64
     7
 65
   257
 75
     1
175
     1
 42
1.0
 92
        0
 66
   257
 43
1.0
 76
     1
 77
     6
 78
     2
 67
     7
 79
     3
170
     0
171
     0
290
     0
174
     0
 93
        1
 44
0.0
173
     0
291
     0
 45
0.0
1001
ACAD
1000
AcDbSavedByObjectVersion
1070
     0
  0
VISUALSTYLE
  5
40
102
{ACAD_REACTORS
330
2A
102
}
102
{ACAD_XDICTIONARY
360
32D
102
}
330
2A
100
AcDbVisualStyle
  2
X-Ray
 70
    25
 71
     2
 72
     2
 73
     1
 90
        1
 40
0.5
 41
30.0
 62
     5
 63
     7
 74
     1
 91
        0
 64
     7
 65
   257
 75
     1
175
     1
 42
1.0
 92
        8
 66
     7
 43
1.0
 76
     1
 77
     6
 78
     2
 67
     7
 79
     3
170
     0
171
     0
290
     0
174
     0
 93
       13
 44
0.0
173
     0
291
     0
 45
0.0
1001
ACAD
1000
AcDbSavedByObjectVersion
1070
     0
  0
DICTIONARYVAR
  5
301
102
{ACAD_REACTORS
330
2FA
102
}
330
2FA
100
DictionaryVariables
280
     0
  1
1:1
  0
DICTIONARYVAR
  5
2FF
102
{ACAD_REACTORS
330
2FA
102
}
330
2FA
100
DictionaryVariables
280
     0
  1
2
  0
DICTIONARYVAR
  5
300
102
{ACAD_REACTORS
330
2FA
102
}
330
2FA
100
DictionaryVariables
280
     0
  1
1
  0
DICTIONARYVAR
  5
302
102
{ACAD_REACTORS
330
2FA
102
}
330
2FA
100
DictionaryVariables
280
     0
  1
1
  0
DICTIONARY
  5
335
330
45
100
AcDbDictionary
280
     1
281
     1
  3
ACAD_XREC_ROUNDTRIP
360
336
  0
DICTIONARY
  5
333
330
44
100
AcDbDictionary
280
     1
281
     1
  3
ACAD_XREC_ROUNDTRIP
360
334
  0
DICTIONARY
  5
337
330
46
100
AcDbDictionary
280
     1
281
     1
  3
ACAD_XREC_ROUNDTRIP
360
338
  0
DICTIONARY
  5
30B
330
2F
100
AcDbDictionary
280
     1
281
     1
  3
ACAD_XREC_ROUNDTRIP
360
30C
  0
DICTIONARY
  5
311
330
32
100
AcDbDictionary
280
     1
281
     1
  3
ACAD_XREC_ROUNDTRIP
360
312
  0
DICTIONARY
  5
319
330
36
100
AcDbDictionary
280
     1
281
     1
  3
ACAD_XREC_ROUNDTRIP
360
31A
  0
DICTIONARY
  5
321
330
3A
100
AcDbDictionary
280
     1
281
     1
  3
ACAD_XREC_ROUNDTRIP
360
322
  0
DICTIONARY
  5
315
330
34
100
AcDbDictionary
280
     1
281
     1
  3
ACAD_XREC_ROUNDTRIP
360
316
  0
DICTIONARY
  5
317
330
35
100
AcDbDictionary
280
     1
281
     1
  3
ACAD_XREC_ROUNDTRIP
360
318
  0
DICTIONARY
  5
327
330
3D
100
AcDbDictionary
280
     1
281
     1
  3
ACAD_XREC_ROUNDTRIP
360
328
  0
DICTIONARY
  5
31F
330
39
100
AcDbDictionary
280
     1
281
     1
  3
ACAD_XREC_ROUNDTRIP
360
320
  0
DICTIONARY
  5
303
330
2B
100
AcDbDictionary
280
     1
281
     1
  3
ACAD_XREC_ROUNDTRIP
360
304
  0
DICTIONARY
  5
305
330
2C
100
AcDbDictionary
280
     1
281
     1
  3
ACAD_XREC_ROUNDTRIP
360
306
  0
DICTIONARY
  5
307
330
2D
100
AcDbDictionary
280
     1
281
     1
  3
ACAD_XREC_ROUNDTRIP
360
308
  0
DICTIONARY
  5
309
330
2E
100
AcDbDictionary
280
     1
281
     1
  3
ACAD_XREC_ROUNDTRIP
360
30A
  0
DICTIONARY
  5
30F
330
31
100
AcDbDictionary
280
     1
281
     1
  3
ACAD_XREC_ROUNDTRIP
360
310
  0
DICTIONARY
  5
323
330
3B
100
AcDbDictionary
280
     1
281
     1
  3
ACAD_XREC_ROUNDTRIP
360
324
  0
DICTIONARY
  5
31D
330
38
100
AcDbDictionary
280
     1
281
     1
  3
ACAD_XREC_ROUNDTRIP
360
31E
  0
DICTIONARY
  5
325
330
3C
100
AcDbDictionary
280
     1
281
     1
  3
ACAD_XREC_ROUNDTRIP
360
326
  0
DICTIONARY
  5
313
330
33
100
AcDbDictionary
280
     1
281
     1
  3
ACAD_XREC_ROUNDTRIP
360
314
  0
DICTIONARY
  5
331
330
42
100
AcDbDictionary
280
     1
281
     1
  3
ACAD_XREC_ROUNDTRIP
360
332
  0
DICTIONARY
  5
32F
330
41
100
AcDbDictionary
280
     1
281
     1
  3
ACAD_XREC_ROUNDTRIP
360
330
  0
DICTIONARY
  5
329
330
3E
100
AcDbDictionary
280
     1
281
     1
  3
ACAD_XREC_ROUNDTRIP
360
32A
  0
DICTIONARY
  5
32B
330
3F
100
AcDbDictionary
280
     1
281
     1
  3
ACAD_XREC_ROUNDTRIP
360
32C
  0
DICTIONARY
  5
31B
330
37
100
AcDbDictionary
280
     1
281
     1
  3
ACAD_XREC_ROUNDTRIP
360
31C
  0
DICTIONARY
  5
30D
330
30
100
AcDbDictionary
280
     1
281
     1
  3
ACAD_XREC_ROUNDTRIP
360
30E
  0
DICTIONARY
  5
32D
330
40
100
AcDbDictionary
280
     1
281
     1
  3
ACAD_XREC_ROUNDTRIP
360
32E
  0
XRECORD
  5
336
102
{ACAD_REACTORS
330
335
102
}
330
335
100
AcDbXrecord
280
     1
102
MATERIAL
148
0.0
149
0.0
149
0.0
 93
        0
 94
      127
282
     0
 72
     1
 77
     1
171
     1
175
     1
179
     1
273
     0
  0
XRECORD
  5
334
102
{ACAD_REACTORS
330
333
102
}
330
333
100
AcDbXrecord
280
     1
102
MATERIAL
148
0.0
149
0.0
149
0.0
 93
        0
 94
      127
282
     0
 72
     1
 77
     1
171
     1
175
     1
179
     1
273
     0
  0
XRECORD
  5
338
102
{ACAD_REACTORS
330
337
102
}
330
337
100
AcDbXrecord
280
     1
102
MATERIAL
148
0.0
149
0.0
149
0.0
 93
        0
 94
      127
282
     0
 72
     1
 77
     1
171
     1
175
     1
179
     1
273
     0
  0
XRECORD
  5
30C
102
{ACAD_REACTORS
330
30B
102
}
330
30B
100
AcDbXrecord
280
     1
102
RTVSPropertyOp0
 70
     1
102
RTVSPropertyOp1
 70
     1
102
RTVSPropertyOp2
 70
     1
102
RTVSPropertyOp3
 70
     1
102
RTVSPropertyOp4
 70
     1
102
RTVSPropertyOp5
 70
     1
102
RTVSPropertyOp6
 70
     1
102
RTVSPropertyOp7
 70
     1
102
RTVSPropertyOp8
 70
     1
102
RTVSPropertyOp9
 70
     1
102
RTVSPropertyOp10
 70
     1
102
RTVSPropertyOp11
 70
     1
102
RTVSPropertyOp12
 70
     1
102
RTVSPropertyOp13
 70
     1
102
RTVSPropertyOp14
 70
     1
102
RTVSPropertyOp15
 70
     1
102
RTVSPropertyOp16
 70
     1
102
RTVSPropertyOp17
 70
     1
102
RTVSPropertyOp18
 70
     1
102
RTVSPropertyOp19
 70
     1
102
RTVSPropertyOp20
 70
     1
102
RTVSPropertyOp21
 70
     1
102
RTVSPropertyOp22
 70
     1
102
RTVSPropertyOp23
 70
     1
102
RTVSPropertyOp24
 70
     1
102
RTVSPropertyOp25
 70
     1
102
RTVSPropertyOp26
 70
     1
102
RTVSPropertyOp27
 70
     1
102
RTVSPropertyOp28
 70
     1
102
RTVSPropertyOp29
 70
     1
102
RTVSPropertyOp30
 70
     1
102
RTVSPropertyOp31
 70
     1
102
RTVSPropertyOp32
 70
     1
102
RTVSPropertyOp33
 70
     1
102
RTVSPropertyOp34
 70
     1
102
RTVSPropertyOp35
 70
     1
102
RTVSPropertyOp36
 70
     1
102
RTVSPropertyOp37
 70
     1
102
RTVSPropertyOp38
 70
     1
102
RTVSPropertyOp39
 70
     1
102
RTVSPropertyOp40
 70
     1
102
RTVSPropertyOp41
 70
     1
102
RTVSPropertyOp42
 70
     1
102
RTVSPropertyOp43
 70
     1
102
RTVSPropertyOp44
 70
     1
102
RTVSPropertyOp45
 70
     1
102
RTVSPropertyOp46
 70
     1
102
RTVSPropertyOp47
 70
     1
102
RTVSPropertyOp48
 70
     1
102
RTVSPropertyOp49
 70
     1
102
RTVSPropertyOp50
 70
     1
102
RTVSPropertyOp51
 70
     0
102
RTVSPropertyOp52
 70
     0
102
RTVSPropertyOp53
 70
     1
102
RTVSPropertyOp54
 70
     1
102
RTVSPropertyOp55
 70
     1
102
RTVSPropertyOp56
 70
     1
102
RTVSPropertyOp57
 70
     1
102
RTVSPost2010Prop28
280
     1
102
RTVSPost2010PropOp28
 70
     1
102
RTVSPost2010Prop29
280
     1
102
RTVSPost2010PropOp29
 70
     1
102
RTVSPost2010Prop30
280
     0
102
RTVSPost2010PropOp30
 70
     1
102
RTVSPost2010Prop31
280
     0
102
RTVSPost2010PropOp31
 70
     1
102
RTVSPost2010Prop32
280
     0
102
RTVSPost2010PropOp32
 70
     1
102
RTVSPost2010Prop33
280
     0
102
RTVSPost2010PropOp33
 70
     1
102
RTVSPost2010Prop34
280
     0
102
RTVSPost2010PropOp34
 70
     1
102
RTVSPost2010Prop35
280
     0
102
RTVSPost2010PropOp35
 70
     1
102
RTVSPost2010Prop36
280
     0
102
RTVSPost2010PropOp36
 70
     1
102
RTVSPost2010Prop37
 90
       50
102
RTVSPost2010PropOp37
 70
     1
102
RTVSPost2010Prop38
140
0.0
102
RTVSPost2010PropOp38
 70
     1
102
RTVSPost2010Prop39
140
1.0
102
RTVSPost2010PropOp39
 70
     1
102
RTVSPost2010Prop40
 90
        0
102
RTVSPost2010PropOp40
 70
     1
102
RTVSPost2010Prop41ColorIndex
 90
       18
102
RTVSPost2010Prop41ColorRGB
 90
        0
102
RTVSPost2010PropOp41
 70
     1
102
RTVSPost2010Prop42
 90
       50
102
RTVSPost2010PropOp42
 70
     1
102
RTVSPost2010Prop43
 90
        3
102
RTVSPost2010PropOp43
 70
     1
102
RTVSPost2010Prop44ColorIndex
 90
        5
102
RTVSPost2010Prop44ColorRGB
 90
      255
102
RTVSPost2010PropOp44
 70
     1
102
RTVSPost2010Prop45
280
     0
102
RTVSPost2010PropOp45
 70
     1
102
RTVSPost2010Prop46
 90
       50
102
RTVSPost2010PropOp46
 70
     1
102
RTVSPost2010Prop47
 90
       50
102
RTVSPost2010PropOp47
 70
     1
102
RTVSPost2010Prop48
 90
       50
102
RTVSPost2010PropOp48
 70
     1
102
RTVSPost2010Prop49
280
     0
102
RTVSPost2010PropOp49
 70
     1
102
RTVSPost2010Prop50
 90
       50
102
RTVSPost2010PropOp50
 70
     1
102
RTVSPost2010Prop51ColorIndex
 90
      256
102
RTVSPost2010Prop51ColorRGB
 90
-16777216
102
RTVSPost2010PropOp51
 70
     0
102
RTVSPost2010Prop52
140
1.0
102
RTVSPost2010PropOp52
 70
     0
102
RTVSPost2010Prop53
 90
        2
102
RTVSPost2010PropOp53
 70
     1
102
RTVSPost2010Prop54
  1
strokes_ogs.tif
102
RTVSPost2010PropOp54
 70
     1
102
RTVSPost2010Prop55
280
     0
102
RTVSPost2010PropOp55
 70
     1
102
RTVSPost2010Prop56
140
1.0
102
RTVSPost2010PropOp56
 70
     1
102
RTVSPost2010Prop57
140
1.0
102
RTVSPost2010PropOp57
 70
     1
  0
XRECORD
  5
312
102
{ACAD_REACTORS
330
311
102
}
330
311
100
AcDbXrecord
280
     1
102
RTVSPropertyOp0
 70
     1
102
RTVSPropertyOp1
 70
     1
102
RTVSPropertyOp2
 70
     1
102
RTVSPropertyOp3
 70
     1
102
RTVSPropertyOp4
 70
     1
102
RTVSPropertyOp5
 70
     1
102
RTVSPropertyOp6
 70
     1
102
RTVSPropertyOp7
 70
     1
102
RTVSPropertyOp8
 70
     1
102
RTVSPropertyOp9
 70
     1
102
RTVSPropertyOp10
 70
     1
102
RTVSPropertyOp11
 70
     1
102
RTVSPropertyOp12
 70
     1
102
RTVSPropertyOp13
 70
     1
102
RTVSPropertyOp14
 70
     1
102
RTVSPropertyOp15
 70
     1
102
RTVSPropertyOp16
 70
     1
102
RTVSPropertyOp17
 70
     1
102
RTVSPropertyOp18
 70
     1
102
RTVSPropertyOp19
 70
     1
102
RTVSPropertyOp20
 70
     1
102
RTVSPropertyOp21
 70
     1
102
RTVSPropertyOp22
 70
     1
102
RTVSPropertyOp23
 70
     1
102
RTVSPropertyOp24
 70
     1
102
RTVSPropertyOp25
 70
     1
102
RTVSPropertyOp26
 70
     1
102
RTVSPropertyOp27
 70
     1
102
RTVSPropertyOp28
 70
     1
102
RTVSPropertyOp29
 70
     1
102
RTVSPropertyOp30
 70
     1
102
RTVSPropertyOp31
 70
     1
102
RTVSPropertyOp32
 70
     1
102
RTVSPropertyOp33
 70
     1
102
RTVSPropertyOp34
 70
     1
102
RTVSPropertyOp35
 70
     1
102
RTVSPropertyOp36
 70
     1
102
RTVSPropertyOp37
 70
     1
102
RTVSPropertyOp38
 70
     1
102
RTVSPropertyOp39
 70
     1
102
RTVSPropertyOp40
 70
     1
102
RTVSPropertyOp41
 70
     1
102
RTVSPropertyOp42
 70
     1
102
RTVSPropertyOp43
 70
     1
102
RTVSPropertyOp44
 70
     1
102
RTVSPropertyOp45
 70
     1
102
RTVSPropertyOp46
 70
     1
102
RTVSPropertyOp47
 70
     1
102
RTVSPropertyOp48
 70
     1
102
RTVSPropertyOp49
 70
     1
102
RTVSPropertyOp50
 70
     1
102
RTVSPropertyOp51
 70
     0
102
RTVSPropertyOp52
 70
     0
102
RTVSPropertyOp53
 70
     1
102
RTVSPropertyOp54
 70
     1
102
RTVSPropertyOp55
 70
     1
102
RTVSPropertyOp56
 70
     1
102
RTVSPropertyOp57
 70
     1
102
RTVSPost2010Prop28
280
     0
102
RTVSPost2010PropOp28
 70
     1
102
RTVSPost2010Prop29
280
     1
102
RTVSPost2010PropOp29
 70
     1
102
RTVSPost2010Prop30
280
     1
102
RTVSPost2010PropOp30
 70
     1
102
RTVSPost2010Prop31
280
     0
102
RTVSPost2010PropOp31
 70
     1
102
RTVSPost2010Prop32
280
     0
102
RTVSPost2010PropOp32
 70
     1
102
RTVSPost2010Prop33
280
     0
102
RTVSPost2010PropOp33
 70
     1
102
RTVSPost2010Prop34
280
     0
102
RTVSPost2010PropOp34
 70
     1
102
RTVSPost2010Prop35
280
     0
102
RTVSPost2010PropOp35
 70
     1
102
RTVSPost2010Prop36
280
     0
102
RTVSPost2010PropOp36
 70
     1
102
RTVSPost2010Prop37
 90
       50
102
RTVSPost2010PropOp37
 70
     1
102
RTVSPost2010Prop38
140
0.0
102
RTVSPost2010PropOp38
 70
     1
102
RTVSPost2010Prop39
140
1.0
102
RTVSPost2010PropOp39
 70
     1
102
RTVSPost2010Prop40
 90
        0
102
RTVSPost2010PropOp40
 70
     1
102
RTVSPost2010Prop41ColorIndex
 90
       18
102
RTVSPost2010Prop41ColorRGB
 90
        0
102
RTVSPost2010PropOp41
 70
     1
102
RTVSPost2010Prop42
 90
       50
102
RTVSPost2010PropOp42
 70
     1
102
RTVSPost2010Prop43
 90
        3
102
RTVSPost2010PropOp43
 70
     1
102
RTVSPost2010Prop44ColorIndex
 90
        5
102
RTVSPost2010Prop44ColorRGB
 90
      255
102
RTVSPost2010PropOp44
 70
     1
102
RTVSPost2010Prop45
280
     0
102
RTVSPost2010PropOp45
 70
     1
102
RTVSPost2010Prop46
 90
       50
102
RTVSPost2010PropOp46
 70
     1
102
RTVSPost2010Prop47
 90
       50
102
RTVSPost2010PropOp47
 70
     1
102
RTVSPost2010Prop48
 90
       50
102
RTVSPost2010PropOp48
 70
     1
102
RTVSPost2010Prop49
280
     0
102
RTVSPost2010PropOp49
 70
     1
102
RTVSPost2010Prop50
 90
       50
102
RTVSPost2010PropOp50
 70
     1
102
RTVSPost2010Prop51ColorIndex
 90
      256
102
RTVSPost2010Prop51ColorRGB
 90
-16777216
102
RTVSPost2010PropOp51
 70
     0
102
RTVSPost2010Prop52
140
1.0
102
RTVSPost2010PropOp52
 70
     0
102
RTVSPost2010Prop53
 90
        2
102
RTVSPost2010PropOp53
 70
     1
102
RTVSPost2010Prop54
  1
strokes_ogs.tif
102
RTVSPost2010PropOp54
 70
     1
102
RTVSPost2010Prop55
280
     0
102
RTVSPost2010PropOp55
 70
     1
102
RTVSPost2010Prop56
140
1.0
102
RTVSPost2010PropOp56
 70
     1
102
RTVSPost2010Prop57
140
1.0
102
RTVSPost2010PropOp57
 70
     1
  0
XRECORD
  5
31A
102
{ACAD_REACTORS
330
319
102
}
330
319
100
AcDbXrecord
280
     1
102
RTVSPropertyOp0
 70
     1
102
RTVSPropertyOp1
 70
     1
102
RTVSPropertyOp2
 70
     1
102
RTVSPropertyOp3
 70
     1
102
RTVSPropertyOp4
 70
     1
102
RTVSPropertyOp5
 70
     1
102
RTVSPropertyOp6
 70
     1
102
RTVSPropertyOp7
 70
     1
102
RTVSPropertyOp8
 70
     1
102
RTVSPropertyOp9
 70
     1
102
RTVSPropertyOp10
 70
     1
102
RTVSPropertyOp11
 70
     1
102
RTVSPropertyOp12
 70
     1
102
RTVSPropertyOp13
 70
     1
102
RTVSPropertyOp14
 70
     1
102
RTVSPropertyOp15
 70
     1
102
RTVSPropertyOp16
 70
     1
102
RTVSPropertyOp17
 70
     1
102
RTVSPropertyOp18
 70
     1
102
RTVSPropertyOp19
 70
     1
102
RTVSPropertyOp20
 70
     1
102
RTVSPropertyOp21
 70
     1
102
RTVSPropertyOp22
 70
     1
102
RTVSPropertyOp23
 70
     1
102
RTVSPropertyOp24
 70
     1
102
RTVSPropertyOp25
 70
     1
102
RTVSPropertyOp26
 70
     1
102
RTVSPropertyOp27
 70
     1
102
RTVSPropertyOp28
 70
     1
102
RTVSPropertyOp29
 70
     1
102
RTVSPropertyOp30
 70
     1
102
RTVSPropertyOp31
 70
     1
102
RTVSPropertyOp32
 70
     1
102
RTVSPropertyOp33
 70
     1
102
RTVSPropertyOp34
 70
     1
102
RTVSPropertyOp35
 70
     1
102
RTVSPropertyOp36
 70
     1
102
RTVSPropertyOp37
 70
     1
102
RTVSPropertyOp38
 70
     1
102
RTVSPropertyOp39
 70
     1
102
RTVSPropertyOp40
 70
     1
102
RTVSPropertyOp41
 70
     1
102
RTVSPropertyOp42
 70
     1
102
RTVSPropertyOp43
 70
     1
102
RTVSPropertyOp44
 70
     1
102
RTVSPropertyOp45
 70
     1
102
RTVSPropertyOp46
 70
     1
102
RTVSPropertyOp47
 70
     1
102
RTVSPropertyOp48
 70
     1
102
RTVSPropertyOp49
 70
     1
102
RTVSPropertyOp50
 70
     1
102
RTVSPropertyOp51
 70
     0
102
RTVSPropertyOp52
 70
     0
102
RTVSPropertyOp53
 70
     1
102
RTVSPropertyOp54
 70
     1
102
RTVSPropertyOp55
 70
     1
102
RTVSPropertyOp56
 70
     1
102
RTVSPropertyOp57
 70
     1
102
RTVSPost2010Prop28
280
     0
102
RTVSPost2010PropOp28
 70
     1
102
RTVSPost2010Prop29
280
     1
102
RTVSPost2010PropOp29
 70
     1
102
RTVSPost2010Prop30
280
     1
102
RTVSPost2010PropOp30
 70
     1
102
RTVSPost2010Prop31
280
     0
102
RTVSPost2010PropOp31
 70
     1
102
RTVSPost2010Prop32
280
     0
102
RTVSPost2010PropOp32
 70
     1
102
RTVSPost2010Prop33
280
     0
102
RTVSPost2010PropOp33
 70
     1
102
RTVSPost2010Prop34
280
     0
102
RTVSPost2010PropOp34
 70
     1
102
RTVSPost2010Prop35
280
     0
102
RTVSPost2010PropOp35
 70
     1
102
RTVSPost2010Prop36
280
     0
102
RTVSPost2010PropOp36
 70
     1
102
RTVSPost2010Prop37
 90
       50
102
RTVSPost2010PropOp37
 70
     1
102
RTVSPost2010Prop38
140
0.0
102
RTVSPost2010PropOp38
 70
     1
102
RTVSPost2010Prop39
140
1.0
102
RTVSPost2010PropOp39
 70
     1
102
RTVSPost2010Prop40
 90
        0
102
RTVSPost2010PropOp40
 70
     1
102
RTVSPost2010Prop41ColorIndex
 90
       18
102
RTVSPost2010Prop41ColorRGB
 90
        0
102
RTVSPost2010PropOp41
 70
     1
102
RTVSPost2010Prop42
 90
       50
102
RTVSPost2010PropOp42
 70
     1
102
RTVSPost2010Prop43
 90
        3
102
RTVSPost2010PropOp43
 70
     1
102
RTVSPost2010Prop44ColorIndex
 90
        5
102
RTVSPost2010Prop44ColorRGB
 90
      255
102
RTVSPost2010PropOp44
 70
     1
102
RTVSPost2010Prop45
280
     0
102
RTVSPost2010PropOp45
 70
     1
102
RTVSPost2010Prop46
 90
       50
102
RTVSPost2010PropOp46
 70
     1
102
RTVSPost2010Prop47
 90
       50
102
RTVSPost2010PropOp47
 70
     1
102
RTVSPost2010Prop48
 90
       50
102
RTVSPost2010PropOp48
 70
     1
102
RTVSPost2010Prop49
280
     0
102
RTVSPost2010PropOp49
 70
     1
102
RTVSPost2010Prop50
 90
       50
102
RTVSPost2010PropOp50
 70
     1
102
RTVSPost2010Prop51ColorIndex
 90
      256
102
RTVSPost2010Prop51ColorRGB
 90
-16777216
102
RTVSPost2010PropOp51
 70
     0
102
RTVSPost2010Prop52
140
1.0
102
RTVSPost2010PropOp52
 70
     0
102
RTVSPost2010Prop53
 90
        2
102
RTVSPost2010PropOp53
 70
     1
102
RTVSPost2010Prop54
  1
strokes_ogs.tif
102
RTVSPost2010PropOp54
 70
     1
102
RTVSPost2010Prop55
280
     0
102
RTVSPost2010PropOp55
 70
     1
102
RTVSPost2010Prop56
140
1.0
102
RTVSPost2010PropOp56
 70
     1
102
RTVSPost2010Prop57
140
1.0
102
RTVSPost2010PropOp57
 70
     1
  0
XRECORD
  5
322
102
{ACAD_REACTORS
330
321
102
}
330
321
100
AcDbXrecord
280
     1
102
RTVSPropertyOp0
 70
     1
102
RTVSPropertyOp1
 70
     1
102
RTVSPropertyOp2
 70
     1
102
RTVSPropertyOp3
 70
     1
102
RTVSPropertyOp4
 70
     1
102
RTVSPropertyOp5
 70
     1
102
RTVSPropertyOp6
 70
     1
102
RTVSPropertyOp7
 70
     1
102
RTVSPropertyOp8
 70
     1
102
RTVSPropertyOp9
 70
     1
102
RTVSPropertyOp10
 70
     1
102
RTVSPropertyOp11
 70
     1
102
RTVSPropertyOp12
 70
     1
102
RTVSPropertyOp13
 70
     1
102
RTVSPropertyOp14
 70
     1
102
RTVSPropertyOp15
 70
     1
102
RTVSPropertyOp16
 70
     1
102
RTVSPropertyOp17
 70
     1
102
RTVSPropertyOp18
 70
     1
102
RTVSPropertyOp19
 70
     1
102
RTVSPropertyOp20
 70
     1
102
RTVSPropertyOp21
 70
     1
102
RTVSPropertyOp22
 70
     1
102
RTVSPropertyOp23
 70
     1
102
RTVSPropertyOp24
 70
     1
102
RTVSPropertyOp25
 70
     1
102
RTVSPropertyOp26
 70
     1
102
RTVSPropertyOp27
 70
     1
102
RTVSPropertyOp28
 70
     1
102
RTVSPropertyOp29
 70
     1
102
RTVSPropertyOp30
 70
     1
102
RTVSPropertyOp31
 70
     1
102
RTVSPropertyOp32
 70
     1
102
RTVSPropertyOp33
 70
     1
102
RTVSPropertyOp34
 70
     1
102
RTVSPropertyOp35
 70
     1
102
RTVSPropertyOp36
 70
     1
102
RTVSPropertyOp37
 70
     1
102
RTVSPropertyOp38
 70
     1
102
RTVSPropertyOp39
 70
     1
102
RTVSPropertyOp40
 70
     1
102
RTVSPropertyOp41
 70
     1
102
RTVSPropertyOp42
 70
     1
102
RTVSPropertyOp43
 70
     1
102
RTVSPropertyOp44
 70
     1
102
RTVSPropertyOp45
 70
     1
102
RTVSPropertyOp46
 70
     1
102
RTVSPropertyOp47
 70
     1
102
RTVSPropertyOp48
 70
     1
102
RTVSPropertyOp49
 70
     1
102
RTVSPropertyOp50
 70
     1
102
RTVSPropertyOp51
 70
     0
102
RTVSPropertyOp52
 70
     0
102
RTVSPropertyOp53
 70
     1
102
RTVSPropertyOp54
 70
     1
102
RTVSPropertyOp55
 70
     1
102
RTVSPropertyOp56
 70
     1
102
RTVSPropertyOp57
 70
     1
102
RTVSPost2010Prop28
280
     0
102
RTVSPost2010PropOp28
 70
     1
102
RTVSPost2010Prop29
280
     1
102
RTVSPost2010PropOp29
 70
     1
102
RTVSPost2010Prop30
280
     1
102
RTVSPost2010PropOp30
 70
     1
102
RTVSPost2010Prop31
280
     0
102
RTVSPost2010PropOp31
 70
     1
102
RTVSPost2010Prop32
280
     0
102
RTVSPost2010PropOp32
 70
     1
102
RTVSPost2010Prop33
280
     0
102
RTVSPost2010PropOp33
 70
     1
102
RTVSPost2010Prop34
280
     0
102
RTVSPost2010PropOp34
 70
     1
102
RTVSPost2010Prop35
280
     0
102
RTVSPost2010PropOp35
 70
     1
102
RTVSPost2010Prop36
280
     0
102
RTVSPost2010PropOp36
 70
     1
102
RTVSPost2010Prop37
 90
       50
102
RTVSPost2010PropOp37
 70
     1
102
RTVSPost2010Prop38
140
0.0
102
RTVSPost2010PropOp38
 70
     1
102
RTVSPost2010Prop39
140
1.0
102
RTVSPost2010PropOp39
 70
     1
102
RTVSPost2010Prop40
 90
        0
102
RTVSPost2010PropOp40
 70
     1
102
RTVSPost2010Prop41ColorIndex
 90
       18
102
RTVSPost2010Prop41ColorRGB
 90
        0
102
RTVSPost2010PropOp41
 70
     1
102
RTVSPost2010Prop42
 90
       50
102
RTVSPost2010PropOp42
 70
     1
102
RTVSPost2010Prop43
 90
        3
102
RTVSPost2010PropOp43
 70
     1
102
RTVSPost2010Prop44ColorIndex
 90
        5
102
RTVSPost2010Prop44ColorRGB
 90
      255
102
RTVSPost2010PropOp44
 70
     1
102
RTVSPost2010Prop45
280
     0
102
RTVSPost2010PropOp45
 70
     1
102
RTVSPost2010Prop46
 90
       50
102
RTVSPost2010PropOp46
 70
     1
102
RTVSPost2010Prop47
 90
       50
102
RTVSPost2010PropOp47
 70
     1
102
RTVSPost2010Prop48
 90
       50
102
RTVSPost2010PropOp48
 70
     1
102
RTVSPost2010Prop49
280
     0
102
RTVSPost2010PropOp49
 70
     1
102
RTVSPost2010Prop50
 90
       50
102
RTVSPost2010PropOp50
 70
     1
102
RTVSPost2010Prop51ColorIndex
 90
      256
102
RTVSPost2010Prop51ColorRGB
 90
-16777216
102
RTVSPost2010PropOp51
 70
     0
102
RTVSPost2010Prop52
140
1.0
102
RTVSPost2010PropOp52
 70
     0
102
RTVSPost2010Prop53
 90
        2
102
RTVSPost2010PropOp53
 70
     1
102
RTVSPost2010Prop54
  1
strokes_ogs.tif
102
RTVSPost2010PropOp54
 70
     1
102
RTVSPost2010Prop55
280
     0
102
RTVSPost2010PropOp55
 70
     1
102
RTVSPost2010Prop56
140
1.0
102
RTVSPost2010PropOp56
 70
     1
102
RTVSPost2010Prop57
140
1.0
102
RTVSPost2010PropOp57
 70
     1
  0
XRECORD
  5
316
102
{ACAD_REACTORS
330
315
102
}
330
315
100
AcDbXrecord
280
     1
102
RTVSPropertyOp0
 70
     1
102
RTVSPropertyOp1
 70
     1
102
RTVSPropertyOp2
 70
     1
102
RTVSPropertyOp3
 70
     1
102
RTVSPropertyOp4
 70
     1
102
RTVSPropertyOp5
 70
     1
102
RTVSPropertyOp6
 70
     1
102
RTVSPropertyOp7
 70
     1
102
RTVSPropertyOp8
 70
     1
102
RTVSPropertyOp9
 70
     1
102
RTVSPropertyOp10
 70
     1
102
RTVSPropertyOp11
 70
     1
102
RTVSPropertyOp12
 70
     1
102
RTVSPropertyOp13
 70
     1
102
RTVSPropertyOp14
 70
     1
102
RTVSPropertyOp15
 70
     1
102
RTVSPropertyOp16
 70
     1
102
RTVSPropertyOp17
 70
     1
102
RTVSPropertyOp18
 70
     1
102
RTVSPropertyOp19
 70
     1
102
RTVSPropertyOp20
 70
     1
102
RTVSPropertyOp21
 70
     1
102
RTVSPropertyOp22
 70
     1
102
RTVSPropertyOp23
 70
     1
102
RTVSPropertyOp24
 70
     1
102
RTVSPropertyOp25
 70
     1
102
RTVSPropertyOp26
 70
     1
102
RTVSPropertyOp27
 70
     1
102
RTVSPropertyOp28
 70
     1
102
RTVSPropertyOp29
 70
     1
102
RTVSPropertyOp30
 70
     1
102
RTVSPropertyOp31
 70
     1
102
RTVSPropertyOp32
 70
     1
102
RTVSPropertyOp33
 70
     1
102
RTVSPropertyOp34
 70
     1
102
RTVSPropertyOp35
 70
     1
102
RTVSPropertyOp36
 70
     1
102
RTVSPropertyOp37
 70
     1
102
RTVSPropertyOp38
 70
     1
102
RTVSPropertyOp39
 70
     1
102
RTVSPropertyOp40
 70
     1
102
RTVSPropertyOp41
 70
     1
102
RTVSPropertyOp42
 70
     1
102
RTVSPropertyOp43
 70
     1
102
RTVSPropertyOp44
 70
     1
102
RTVSPropertyOp45
 70
     1
102
RTVSPropertyOp46
 70
     1
102
RTVSPropertyOp47
 70
     1
102
RTVSPropertyOp48
 70
     1
102
RTVSPropertyOp49
 70
     1
102
RTVSPropertyOp50
 70
     1
102
RTVSPropertyOp51
 70
     0
102
RTVSPropertyOp52
 70
     0
102
RTVSPropertyOp53
 70
     1
102
RTVSPropertyOp54
 70
     1
102
RTVSPropertyOp55
 70
     1
102
RTVSPropertyOp56
 70
     1
102
RTVSPropertyOp57
 70
     1
102
RTVSPost2010Prop28
280
     0
102
RTVSPost2010PropOp28
 70
     1
102
RTVSPost2010Prop29
280
     1
102
RTVSPost2010PropOp29
 70
     1
102
RTVSPost2010Prop30
280
     1
102
RTVSPost2010PropOp30
 70
     1
102
RTVSPost2010Prop31
280
     0
102
RTVSPost2010PropOp31
 70
     1
102
RTVSPost2010Prop32
280
     0
102
RTVSPost2010PropOp32
 70
     1
102
RTVSPost2010Prop33
280
     0
102
RTVSPost2010PropOp33
 70
     1
102
RTVSPost2010Prop34
280
     0
102
RTVSPost2010PropOp34
 70
     1
102
RTVSPost2010Prop35
280
     0
102
RTVSPost2010PropOp35
 70
     1
102
RTVSPost2010Prop36
280
     0
102
RTVSPost2010PropOp36
 70
     1
102
RTVSPost2010Prop37
 90
       50
102
RTVSPost2010PropOp37
 70
     1
102
RTVSPost2010Prop38
140
0.0
102
RTVSPost2010PropOp38
 70
     1
102
RTVSPost2010Prop39
140
1.0
102
RTVSPost2010PropOp39
 70
     1
102
RTVSPost2010Prop40
 90
        0
102
RTVSPost2010PropOp40
 70
     1
102
RTVSPost2010Prop41ColorIndex
 90
       18
102
RTVSPost2010Prop41ColorRGB
 90
        0
102
RTVSPost2010PropOp41
 70
     1
102
RTVSPost2010Prop42
 90
       50
102
RTVSPost2010PropOp42
 70
     1
102
RTVSPost2010Prop43
 90
        3
102
RTVSPost2010PropOp43
 70
     1
102
RTVSPost2010Prop44ColorIndex
 90
        5
102
RTVSPost2010Prop44ColorRGB
 90
      255
102
RTVSPost2010PropOp44
 70
     1
102
RTVSPost2010Prop45
280
     0
102
RTVSPost2010PropOp45
 70
     1
102
RTVSPost2010Prop46
 90
       50
102
RTVSPost2010PropOp46
 70
     1
102
RTVSPost2010Prop47
 90
       50
102
RTVSPost2010PropOp47
 70
     1
102
RTVSPost2010Prop48
 90
       50
102
RTVSPost2010PropOp48
 70
     1
102
RTVSPost2010Prop49
280
     0
102
RTVSPost2010PropOp49
 70
     1
102
RTVSPost2010Prop50
 90
       50
102
RTVSPost2010PropOp50
 70
     1
102
RTVSPost2010Prop51ColorIndex
 90
      256
102
RTVSPost2010Prop51ColorRGB
 90
-16777216
102
RTVSPost2010PropOp51
 70
     0
102
RTVSPost2010Prop52
140
1.0
102
RTVSPost2010PropOp52
 70
     0
102
RTVSPost2010Prop53
 90
        2
102
RTVSPost2010PropOp53
 70
     1
102
RTVSPost2010Prop54
  1
strokes_ogs.tif
102
RTVSPost2010PropOp54
 70
     1
102
RTVSPost2010Prop55
280
     0
102
RTVSPost2010PropOp55
 70
     1
102
RTVSPost2010Prop56
140
1.0
102
RTVSPost2010PropOp56
 70
     1
102
RTVSPost2010Prop57
140
1.0
102
RTVSPost2010PropOp57
 70
     1
  0
XRECORD
  5
318
102
{ACAD_REACTORS
330
317
102
}
330
317
100
AcDbXrecord
280
     1
102
RTVSPropertyOp0
 70
     1
102
RTVSPropertyOp1
 70
     1
102
RTVSPropertyOp2
 70
     1
102
RTVSPropertyOp3
 70
     1
102
RTVSPropertyOp4
 70
     1
102
RTVSPropertyOp5
 70
     1
102
RTVSPropertyOp6
 70
     1
102
RTVSPropertyOp7
 70
     1
102
RTVSPropertyOp8
 70
     1
102
RTVSPropertyOp9
 70
     1
102
RTVSPropertyOp10
 70
     1
102
RTVSPropertyOp11
 70
     1
102
RTVSPropertyOp12
 70
     1
102
RTVSPropertyOp13
 70
     1
102
RTVSPropertyOp14
 70
     1
102
RTVSPropertyOp15
 70
     1
102
RTVSPropertyOp16
 70
     1
102
RTVSPropertyOp17
 70
     1
102
RTVSPropertyOp18
 70
     1
102
RTVSPropertyOp19
 70
     1
102
RTVSPropertyOp20
 70
     1
102
RTVSPropertyOp21
 70
     1
102
RTVSPropertyOp22
 70
     1
102
RTVSPropertyOp23
 70
     1
102
RTVSPropertyOp24
 70
     1
102
RTVSPropertyOp25
 70
     1
102
RTVSPropertyOp26
 70
     1
102
RTVSPropertyOp27
 70
     1
102
RTVSPropertyOp28
 70
     1
102
RTVSPropertyOp29
 70
     1
102
RTVSPropertyOp30
 70
     1
102
RTVSPropertyOp31
 70
     1
102
RTVSPropertyOp32
 70
     1
102
RTVSPropertyOp33
 70
     1
102
RTVSPropertyOp34
 70
     1
102
RTVSPropertyOp35
 70
     1
102
RTVSPropertyOp36
 70
     1
102
RTVSPropertyOp37
 70
     1
102
RTVSPropertyOp38
 70
     1
102
RTVSPropertyOp39
 70
     1
102
RTVSPropertyOp40
 70
     1
102
RTVSPropertyOp41
 70
     1
102
RTVSPropertyOp42
 70
     1
102
RTVSPropertyOp43
 70
     1
102
RTVSPropertyOp44
 70
     1
102
RTVSPropertyOp45
 70
     1
102
RTVSPropertyOp46
 70
     1
102
RTVSPropertyOp47
 70
     1
102
RTVSPropertyOp48
 70
     1
102
RTVSPropertyOp49
 70
     1
102
RTVSPropertyOp50
 70
     1
102
RTVSPropertyOp51
 70
     0
102
RTVSPropertyOp52
 70
     0
102
RTVSPropertyOp53
 70
     1
102
RTVSPropertyOp54
 70
     1
102
RTVSPropertyOp55
 70
     1
102
RTVSPropertyOp56
 70
     1
102
RTVSPropertyOp57
 70
     1
102
RTVSPost2010Prop28
280
     0
102
RTVSPost2010PropOp28
 70
     1
102
RTVSPost2010Prop29
280
     1
102
RTVSPost2010PropOp29
 70
     1
102
RTVSPost2010Prop30
280
     1
102
RTVSPost2010PropOp30
 70
     1
102
RTVSPost2010Prop31
280
     0
102
RTVSPost2010PropOp31
 70
     1
102
RTVSPost2010Prop32
280
     0
102
RTVSPost2010PropOp32
 70
     1
102
RTVSPost2010Prop33
280
     0
102
RTVSPost2010PropOp33
 70
     1
102
RTVSPost2010Prop34
280
     0
102
RTVSPost2010PropOp34
 70
     1
102
RTVSPost2010Prop35
280
     0
102
RTVSPost2010PropOp35
 70
     1
102
RTVSPost2010Prop36
280
     0
102
RTVSPost2010PropOp36
 70
     1
102
RTVSPost2010Prop37
 90
       50
102
RTVSPost2010PropOp37
 70
     1
102
RTVSPost2010Prop38
140
0.0
102
RTVSPost2010PropOp38
 70
     1
102
RTVSPost2010Prop39
140
1.0
102
RTVSPost2010PropOp39
 70
     1
102
RTVSPost2010Prop40
 90
        0
102
RTVSPost2010PropOp40
 70
     1
102
RTVSPost2010Prop41ColorIndex
 90
       18
102
RTVSPost2010Prop41ColorRGB
 90
        0
102
RTVSPost2010PropOp41
 70
     1
102
RTVSPost2010Prop42
 90
       50
102
RTVSPost2010PropOp42
 70
     1
102
RTVSPost2010Prop43
 90
        3
102
RTVSPost2010PropOp43
 70
     1
102
RTVSPost2010Prop44ColorIndex
 90
        5
102
RTVSPost2010Prop44ColorRGB
 90
      255
102
RTVSPost2010PropOp44
 70
     1
102
RTVSPost2010Prop45
280
     0
102
RTVSPost2010PropOp45
 70
     1
102
RTVSPost2010Prop46
 90
       50
102
RTVSPost2010PropOp46
 70
     1
102
RTVSPost2010Prop47
 90
       50
102
RTVSPost2010PropOp47
 70
     1
102
RTVSPost2010Prop48
 90
       50
102
RTVSPost2010PropOp48
 70
     1
102
RTVSPost2010Prop49
280
     0
102
RTVSPost2010PropOp49
 70
     1
102
RTVSPost2010Prop50
 90
       50
102
RTVSPost2010PropOp50
 70
     1
102
RTVSPost2010Prop51ColorIndex
 90
      256
102
RTVSPost2010Prop51ColorRGB
 90
-16777216
102
RTVSPost2010PropOp51
 70
     0
102
RTVSPost2010Prop52
140
1.0
102
RTVSPost2010PropOp52
 70
     0
102
RTVSPost2010Prop53
 90
        2
102
RTVSPost2010PropOp53
 70
     1
102
RTVSPost2010Prop54
  1
strokes_ogs.tif
102
RTVSPost2010PropOp54
 70
     1
102
RTVSPost2010Prop55
280
     0
102
RTVSPost2010PropOp55
 70
     1
102
RTVSPost2010Prop56
140
1.0
102
RTVSPost2010PropOp56
 70
     1
102
RTVSPost2010Prop57
140
1.0
102
RTVSPost2010PropOp57
 70
     1
  0
XRECORD
  5
328
102
{ACAD_REACTORS
330
327
102
}
330
327
100
AcDbXrecord
280
     1
102
RTVSPropertyOp0
 70
     0
102
RTVSPropertyOp1
 70
     0
102
RTVSPropertyOp2
 70
     0
102
RTVSPropertyOp3
 70
     0
102
RTVSPropertyOp4
 70
     0
102
RTVSPropertyOp5
 70
     0
102
RTVSPropertyOp6
 70
     0
102
RTVSPropertyOp7
 70
     0
102
RTVSPropertyOp8
 70
     0
102
RTVSPropertyOp9
 70
     0
102
RTVSPropertyOp10
 70
     0
102
RTVSPropertyOp11
 70
     0
102
RTVSPropertyOp12
 70
     0
102
RTVSPropertyOp13
 70
     0
102
RTVSPropertyOp14
 70
     2
102
RTVSPropertyOp15
 70
     0
102
RTVSPropertyOp16
 70
     0
102
RTVSPropertyOp17
 70
     0
102
RTVSPropertyOp18
 70
     0
102
RTVSPropertyOp19
 70
     0
102
RTVSPropertyOp20
 70
     0
102
RTVSPropertyOp21
 70
     0
102
RTVSPropertyOp22
 70
     0
102
RTVSPropertyOp23
 70
     0
102
RTVSPropertyOp24
 70
     0
102
RTVSPropertyOp25
 70
     0
102
RTVSPropertyOp26
 70
     0
102
RTVSPropertyOp27
 70
     0
102
RTVSPropertyOp28
 70
     0
102
RTVSPropertyOp29
 70
     0
102
RTVSPropertyOp30
 70
     0
102
RTVSPropertyOp31
 70
     0
102
RTVSPropertyOp32
 70
     0
102
RTVSPropertyOp33
 70
     0
102
RTVSPropertyOp34
 70
     0
102
RTVSPropertyOp35
 70
     0
102
RTVSPropertyOp36
 70
     0
102
RTVSPropertyOp37
 70
     0
102
RTVSPropertyOp38
 70
     0
102
RTVSPropertyOp39
 70
     0
102
RTVSPropertyOp40
 70
     0
102
RTVSPropertyOp41
 70
     0
102
RTVSPropertyOp42
 70
     0
102
RTVSPropertyOp43
 70
     0
102
RTVSPropertyOp44
 70
     0
102
RTVSPropertyOp45
 70
     0
102
RTVSPropertyOp46
 70
     0
102
RTVSPropertyOp47
 70
     0
102
RTVSPropertyOp48
 70
     0
102
RTVSPropertyOp49
 70
     0
102
RTVSPropertyOp50
 70
     0
102
RTVSPropertyOp51
 70
     0
102
RTVSPropertyOp52
 70
     0
102
RTVSPropertyOp53
 70
     0
102
RTVSPropertyOp54
 70
     0
102
RTVSPropertyOp55
 70
     0
102
RTVSPropertyOp56
 70
     0
102
RTVSPropertyOp57
 70
     0
102
RTVSPost2010Prop28
280
     0
102
RTVSPost2010PropOp28
 70
     0
102
RTVSPost2010Prop29
280
     1
102
RTVSPost2010PropOp29
 70
     0
102
RTVSPost2010Prop30
280
     1
102
RTVSPost2010PropOp30
 70
     0
102
RTVSPost2010Prop31
280
     0
102
RTVSPost2010PropOp31
 70
     0
102
RTVSPost2010Prop32
280
     0
102
RTVSPost2010PropOp32
 70
     0
102
RTVSPost2010Prop33
280
     0
102
RTVSPost2010PropOp33
 70
     0
102
RTVSPost2010Prop34
280
     0
102
RTVSPost2010PropOp34
 70
     0
102
RTVSPost2010Prop35
280
     0
102
RTVSPost2010PropOp35
 70
     0
102
RTVSPost2010Prop36
280
     0
102
RTVSPost2010PropOp36
 70
     0
102
RTVSPost2010Prop37
 90
       50
102
RTVSPost2010PropOp37
 70
     0
102
RTVSPost2010Prop38
140
0.0
102
RTVSPost2010PropOp38
 70
     0
102
RTVSPost2010Prop39
140
1.0
102
RTVSPost2010PropOp39
 70
     0
102
RTVSPost2010Prop40
 90
        0
102
RTVSPost2010PropOp40
 70
     0
102
RTVSPost2010Prop41ColorIndex
 90
       18
102
RTVSPost2010Prop41ColorRGB
 90
        0
102
RTVSPost2010PropOp41
 70
     0
102
RTVSPost2010Prop42
 90
       50
102
RTVSPost2010PropOp42
 70
     0
102
RTVSPost2010Prop43
 90
        3
102
RTVSPost2010PropOp43
 70
     0
102
RTVSPost2010Prop44ColorIndex
 90
        5
102
RTVSPost2010Prop44ColorRGB
 90
      255
102
RTVSPost2010PropOp44
 70
     0
102
RTVSPost2010Prop45
280
     0
102
RTVSPost2010PropOp45
 70
     0
102
RTVSPost2010Prop46
 90
       50
102
RTVSPost2010PropOp46
 70
     0
102
RTVSPost2010Prop47
 90
       50
102
RTVSPost2010PropOp47
 70
     0
102
RTVSPost2010Prop48
 90
       50
102
RTVSPost2010PropOp48
 70
     0
102
RTVSPost2010Prop49
280
     0
102
RTVSPost2010PropOp49
 70
     0
102
RTVSPost2010Prop50
 90
       50
102
RTVSPost2010PropOp50
 70
     0
102
RTVSPost2010Prop51ColorIndex
 90
      256
102
RTVSPost2010Prop51ColorRGB
 90
-16777216
102
RTVSPost2010PropOp51
 70
     0
102
RTVSPost2010Prop52
140
1.0
102
RTVSPost2010PropOp52
 70
     0
102
RTVSPost2010Prop53
 90
        2
102
RTVSPost2010PropOp53
 70
     0
102
RTVSPost2010Prop54
  1
strokes_ogs.tif
102
RTVSPost2010PropOp54
 70
     0
102
RTVSPost2010Prop55
280
     0
102
RTVSPost2010PropOp55
 70
     0
102
RTVSPost2010Prop56
140
1.0
102
RTVSPost2010PropOp56
 70
     0
102
RTVSPost2010Prop57
140
1.0
102
RTVSPost2010PropOp57
 70
     0
  0
XRECORD
  5
320
102
{ACAD_REACTORS
330
31F
102
}
330
31F
100
AcDbXrecord
280
     1
102
RTVSPropertyOp0
 70
     1
102
RTVSPropertyOp1
 70
     1
102
RTVSPropertyOp2
 70
     1
102
RTVSPropertyOp3
 70
     1
102
RTVSPropertyOp4
 70
     1
102
RTVSPropertyOp5
 70
     1
102
RTVSPropertyOp6
 70
     1
102
RTVSPropertyOp7
 70
     1
102
RTVSPropertyOp8
 70
     1
102
RTVSPropertyOp9
 70
     1
102
RTVSPropertyOp10
 70
     1
102
RTVSPropertyOp11
 70
     1
102
RTVSPropertyOp12
 70
     1
102
RTVSPropertyOp13
 70
     1
102
RTVSPropertyOp14
 70
     1
102
RTVSPropertyOp15
 70
     1
102
RTVSPropertyOp16
 70
     1
102
RTVSPropertyOp17
 70
     1
102
RTVSPropertyOp18
 70
     1
102
RTVSPropertyOp19
 70
     1
102
RTVSPropertyOp20
 70
     1
102
RTVSPropertyOp21
 70
     1
102
RTVSPropertyOp22
 70
     1
102
RTVSPropertyOp23
 70
     1
102
RTVSPropertyOp24
 70
     1
102
RTVSPropertyOp25
 70
     1
102
RTVSPropertyOp26
 70
     1
102
RTVSPropertyOp27
 70
     1
102
RTVSPropertyOp28
 70
     1
102
RTVSPropertyOp29
 70
     1
102
RTVSPropertyOp30
 70
     1
102
RTVSPropertyOp31
 70
     1
102
RTVSPropertyOp32
 70
     1
102
RTVSPropertyOp33
 70
     1
102
RTVSPropertyOp34
 70
     1
102
RTVSPropertyOp35
 70
     1
102
RTVSPropertyOp36
 70
     1
102
RTVSPropertyOp37
 70
     1
102
RTVSPropertyOp38
 70
     1
102
RTVSPropertyOp39
 70
     1
102
RTVSPropertyOp40
 70
     1
102
RTVSPropertyOp41
 70
     1
102
RTVSPropertyOp42
 70
     1
102
RTVSPropertyOp43
 70
     1
102
RTVSPropertyOp44
 70
     1
102
RTVSPropertyOp45
 70
     1
102
RTVSPropertyOp46
 70
     1
102
RTVSPropertyOp47
 70
     1
102
RTVSPropertyOp48
 70
     1
102
RTVSPropertyOp49
 70
     1
102
RTVSPropertyOp50
 70
     1
102
RTVSPropertyOp51
 70
     0
102
RTVSPropertyOp52
 70
     0
102
RTVSPropertyOp53
 70
     1
102
RTVSPropertyOp54
 70
     1
102
RTVSPropertyOp55
 70
     1
102
RTVSPropertyOp56
 70
     1
102
RTVSPropertyOp57
 70
     1
102
RTVSPost2010Prop28
280
     0
102
RTVSPost2010PropOp28
 70
     1
102
RTVSPost2010Prop29
280
     1
102
RTVSPost2010PropOp29
 70
     1
102
RTVSPost2010Prop30
280
     1
102
RTVSPost2010PropOp30
 70
     1
102
RTVSPost2010Prop31
280
     0
102
RTVSPost2010PropOp31
 70
     1
102
RTVSPost2010Prop32
280
     0
102
RTVSPost2010PropOp32
 70
     1
102
RTVSPost2010Prop33
280
     0
102
RTVSPost2010PropOp33
 70
     1
102
RTVSPost2010Prop34
280
     0
102
RTVSPost2010PropOp34
 70
     1
102
RTVSPost2010Prop35
280
     0
102
RTVSPost2010PropOp35
 70
     1
102
RTVSPost2010Prop36
280
     0
102
RTVSPost2010PropOp36
 70
     1
102
RTVSPost2010Prop37
 90
       50
102
RTVSPost2010PropOp37
 70
     1
102
RTVSPost2010Prop38
140
0.0
102
RTVSPost2010PropOp38
 70
     1
102
RTVSPost2010Prop39
140
1.0
102
RTVSPost2010PropOp39
 70
     1
102
RTVSPost2010Prop40
 90
        0
102
RTVSPost2010PropOp40
 70
     1
102
RTVSPost2010Prop41ColorIndex
 90
       18
102
RTVSPost2010Prop41ColorRGB
 90
        0
102
RTVSPost2010PropOp41
 70
     1
102
RTVSPost2010Prop42
 90
       50
102
RTVSPost2010PropOp42
 70
     1
102
RTVSPost2010Prop43
 90
        3
102
RTVSPost2010PropOp43
 70
     1
102
RTVSPost2010Prop44ColorIndex
 90
        5
102
RTVSPost2010Prop44ColorRGB
 90
      255
102
RTVSPost2010PropOp44
 70
     1
102
RTVSPost2010Prop45
280
     0
102
RTVSPost2010PropOp45
 70
     1
102
RTVSPost2010Prop46
 90
       50
102
RTVSPost2010PropOp46
 70
     1
102
RTVSPost2010Prop47
 90
       50
102
RTVSPost2010PropOp47
 70
     1
102
RTVSPost2010Prop48
 90
       50
102
RTVSPost2010PropOp48
 70
     1
102
RTVSPost2010Prop49
280
     0
102
RTVSPost2010PropOp49
 70
     1
102
RTVSPost2010Prop50
 90
       50
102
RTVSPost2010PropOp50
 70
     1
102
RTVSPost2010Prop51ColorIndex
 90
      256
102
RTVSPost2010Prop51ColorRGB
 90
-16777216
102
RTVSPost2010PropOp51
 70
     0
102
RTVSPost2010Prop52
140
1.0
102
RTVSPost2010PropOp52
 70
     0
102
RTVSPost2010Prop53
 90
        2
102
RTVSPost2010PropOp53
 70
     1
102
RTVSPost2010Prop54
  1
strokes_ogs.tif
102
RTVSPost2010PropOp54
 70
     1
102
RTVSPost2010Prop55
280
     0
102
RTVSPost2010PropOp55
 70
     1
102
RTVSPost2010Prop56
140
1.0
102
RTVSPost2010PropOp56
 70
     1
102
RTVSPost2010Prop57
140
1.0
102
RTVSPost2010PropOp57
 70
     1
  0
XRECORD
  5
304
102
{ACAD_REACTORS
330
303
102
}
330
303
100
AcDbXrecord
280
     1
102
RTVSPropertyOp0
 70
     1
102
RTVSPropertyOp1
 70
     1
102
RTVSPropertyOp2
 70
     1
102
RTVSPropertyOp3
 70
     1
102
RTVSPropertyOp4
 70
     1
102
RTVSPropertyOp5
 70
     1
102
RTVSPropertyOp6
 70
     1
102
RTVSPropertyOp7
 70
     1
102
RTVSPropertyOp8
 70
     1
102
RTVSPropertyOp9
 70
     1
102
RTVSPropertyOp10
 70
     1
102
RTVSPropertyOp11
 70
     1
102
RTVSPropertyOp12
 70
     1
102
RTVSPropertyOp13
 70
     1
102
RTVSPropertyOp14
 70
     1
102
RTVSPropertyOp15
 70
     1
102
RTVSPropertyOp16
 70
     1
102
RTVSPropertyOp17
 70
     1
102
RTVSPropertyOp18
 70
     1
102
RTVSPropertyOp19
 70
     1
102
RTVSPropertyOp20
 70
     1
102
RTVSPropertyOp21
 70
     1
102
RTVSPropertyOp22
 70
     1
102
RTVSPropertyOp23
 70
     1
102
RTVSPropertyOp24
 70
     1
102
RTVSPropertyOp25
 70
     1
102
RTVSPropertyOp26
 70
     1
102
RTVSPropertyOp27
 70
     1
102
RTVSPropertyOp28
 70
     1
102
RTVSPropertyOp29
 70
     1
102
RTVSPropertyOp30
 70
     1
102
RTVSPropertyOp31
 70
     1
102
RTVSPropertyOp32
 70
     1
102
RTVSPropertyOp33
 70
     1
102
RTVSPropertyOp34
 70
     1
102
RTVSPropertyOp35
 70
     1
102
RTVSPropertyOp36
 70
     1
102
RTVSPropertyOp37
 70
     1
102
RTVSPropertyOp38
 70
     1
102
RTVSPropertyOp39
 70
     1
102
RTVSPropertyOp40
 70
     1
102
RTVSPropertyOp41
 70
     1
102
RTVSPropertyOp42
 70
     1
102
RTVSPropertyOp43
 70
     1
102
RTVSPropertyOp44
 70
     1
102
RTVSPropertyOp45
 70
     1
102
RTVSPropertyOp46
 70
     1
102
RTVSPropertyOp47
 70
     1
102
RTVSPropertyOp48
 70
     1
102
RTVSPropertyOp49
 70
     1
102
RTVSPropertyOp50
 70
     1
102
RTVSPropertyOp51
 70
     0
102
RTVSPropertyOp52
 70
     0
102
RTVSPropertyOp53
 70
     1
102
RTVSPropertyOp54
 70
     1
102
RTVSPropertyOp55
 70
     1
102
RTVSPropertyOp56
 70
     1
102
RTVSPropertyOp57
 70
     1
102
RTVSPost2010Prop28
280
     0
102
RTVSPost2010PropOp28
 70
     1
102
RTVSPost2010Prop29
280
     1
102
RTVSPost2010PropOp29
 70
     1
102
RTVSPost2010Prop30
280
     1
102
RTVSPost2010PropOp30
 70
     1
102
RTVSPost2010Prop31
280
     0
102
RTVSPost2010PropOp31
 70
     1
102
RTVSPost2010Prop32
280
     0
102
RTVSPost2010PropOp32
 70
     1
102
RTVSPost2010Prop33
280
     0
102
RTVSPost2010PropOp33
 70
     1
102
RTVSPost2010Prop34
280
     0
102
RTVSPost2010PropOp34
 70
     1
102
RTVSPost2010Prop35
280
     0
102
RTVSPost2010PropOp35
 70
     1
102
RTVSPost2010Prop36
280
     0
102
RTVSPost2010PropOp36
 70
     1
102
RTVSPost2010Prop37
 90
       50
102
RTVSPost2010PropOp37
 70
     1
102
RTVSPost2010Prop38
140
0.0
102
RTVSPost2010PropOp38
 70
     1
102
RTVSPost2010Prop39
140
1.0
102
RTVSPost2010PropOp39
 70
     1
102
RTVSPost2010Prop40
 90
        0
102
RTVSPost2010PropOp40
 70
     1
102
RTVSPost2010Prop41ColorIndex
 90
       18
102
RTVSPost2010Prop41ColorRGB
 90
        0
102
RTVSPost2010PropOp41
 70
     1
102
RTVSPost2010Prop42
 90
       50
102
RTVSPost2010PropOp42
 70
     1
102
RTVSPost2010Prop43
 90
        3
102
RTVSPost2010PropOp43
 70
     1
102
RTVSPost2010Prop44ColorIndex
 90
        5
102
RTVSPost2010Prop44ColorRGB
 90
      255
102
RTVSPost2010PropOp44
 70
     1
102
RTVSPost2010Prop45
280
     0
102
RTVSPost2010PropOp45
 70
     1
102
RTVSPost2010Prop46
 90
       50
102
RTVSPost2010PropOp46
 70
     1
102
RTVSPost2010Prop47
 90
       50
102
RTVSPost2010PropOp47
 70
     1
102
RTVSPost2010Prop48
 90
       50
102
RTVSPost2010PropOp48
 70
     1
102
RTVSPost2010Prop49
280
     0
102
RTVSPost2010PropOp49
 70
     1
102
RTVSPost2010Prop50
 90
       50
102
RTVSPost2010PropOp50
 70
     1
102
RTVSPost2010Prop51ColorIndex
 90
      256
102
RTVSPost2010Prop51ColorRGB
 90
-16777216
102
RTVSPost2010PropOp51
 70
     0
102
RTVSPost2010Prop52
140
1.0
102
RTVSPost2010PropOp52
 70
     0
102
RTVSPost2010Prop53
 90
        2
102
RTVSPost2010PropOp53
 70
     1
102
RTVSPost2010Prop54
  1
strokes_ogs.tif
102
RTVSPost2010PropOp54
 70
     1
102
RTVSPost2010Prop55
280
     0
102
RTVSPost2010PropOp55
 70
     1
102
RTVSPost2010Prop56
140
1.0
102
RTVSPost2010PropOp56
 70
     1
102
RTVSPost2010Prop57
140
1.0
102
RTVSPost2010PropOp57
 70
     1
  0
XRECORD
  5
306
102
{ACAD_REACTORS
330
305
102
}
330
305
100
AcDbXrecord
280
     1
102
RTVSPropertyOp0
 70
     1
102
RTVSPropertyOp1
 70
     1
102
RTVSPropertyOp2
 70
     1
102
RTVSPropertyOp3
 70
     1
102
RTVSPropertyOp4
 70
     1
102
RTVSPropertyOp5
 70
     1
102
RTVSPropertyOp6
 70
     1
102
RTVSPropertyOp7
 70
     1
102
RTVSPropertyOp8
 70
     1
102
RTVSPropertyOp9
 70
     1
102
RTVSPropertyOp10
 70
     1
102
RTVSPropertyOp11
 70
     1
102
RTVSPropertyOp12
 70
     1
102
RTVSPropertyOp13
 70
     1
102
RTVSPropertyOp14
 70
     1
102
RTVSPropertyOp15
 70
     1
102
RTVSPropertyOp16
 70
     1
102
RTVSPropertyOp17
 70
     1
102
RTVSPropertyOp18
 70
     1
102
RTVSPropertyOp19
 70
     1
102
RTVSPropertyOp20
 70
     1
102
RTVSPropertyOp21
 70
     1
102
RTVSPropertyOp22
 70
     1
102
RTVSPropertyOp23
 70
     1
102
RTVSPropertyOp24
 70
     1
102
RTVSPropertyOp25
 70
     1
102
RTVSPropertyOp26
 70
     1
102
RTVSPropertyOp27
 70
     1
102
RTVSPropertyOp28
 70
     1
102
RTVSPropertyOp29
 70
     1
102
RTVSPropertyOp30
 70
     1
102
RTVSPropertyOp31
 70
     1
102
RTVSPropertyOp32
 70
     1
102
RTVSPropertyOp33
 70
     1
102
RTVSPropertyOp34
 70
     1
102
RTVSPropertyOp35
 70
     1
102
RTVSPropertyOp36
 70
     1
102
RTVSPropertyOp37
 70
     1
102
RTVSPropertyOp38
 70
     1
102
RTVSPropertyOp39
 70
     1
102
RTVSPropertyOp40
 70
     1
102
RTVSPropertyOp41
 70
     1
102
RTVSPropertyOp42
 70
     1
102
RTVSPropertyOp43
 70
     1
102
RTVSPropertyOp44
 70
     1
102
RTVSPropertyOp45
 70
     1
102
RTVSPropertyOp46
 70
     1
102
RTVSPropertyOp47
 70
     1
102
RTVSPropertyOp48
 70
     1
102
RTVSPropertyOp49
 70
     1
102
RTVSPropertyOp50
 70
     1
102
RTVSPropertyOp51
 70
     0
102
RTVSPropertyOp52
 70
     0
102
RTVSPropertyOp53
 70
     1
102
RTVSPropertyOp54
 70
     1
102
RTVSPropertyOp55
 70
     1
102
RTVSPropertyOp56
 70
     1
102
RTVSPropertyOp57
 70
     1
102
RTVSPost2010Prop28
280
     0
102
RTVSPost2010PropOp28
 70
     1
102
RTVSPost2010Prop29
280
     1
102
RTVSPost2010PropOp29
 70
     1
102
RTVSPost2010Prop30
280
     1
102
RTVSPost2010PropOp30
 70
     1
102
RTVSPost2010Prop31
280
     0
102
RTVSPost2010PropOp31
 70
     1
102
RTVSPost2010Prop32
280
     0
102
RTVSPost2010PropOp32
 70
     1
102
RTVSPost2010Prop33
280
     0
102
RTVSPost2010PropOp33
 70
     1
102
RTVSPost2010Prop34
280
     0
102
RTVSPost2010PropOp34
 70
     1
102
RTVSPost2010Prop35
280
     0
102
RTVSPost2010PropOp35
 70
     1
102
RTVSPost2010Prop36
280
     0
102
RTVSPost2010PropOp36
 70
     1
102
RTVSPost2010Prop37
 90
       50
102
RTVSPost2010PropOp37
 70
     1
102
RTVSPost2010Prop38
140
0.0
102
RTVSPost2010PropOp38
 70
     1
102
RTVSPost2010Prop39
140
1.0
102
RTVSPost2010PropOp39
 70
     1
102
RTVSPost2010Prop40
 90
        0
102
RTVSPost2010PropOp40
 70
     1
102
RTVSPost2010Prop41ColorIndex
 90
       18
102
RTVSPost2010Prop41ColorRGB
 90
        0
102
RTVSPost2010PropOp41
 70
     1
102
RTVSPost2010Prop42
 90
       50
102
RTVSPost2010PropOp42
 70
     1
102
RTVSPost2010Prop43
 90
        3
102
RTVSPost2010PropOp43
 70
     1
102
RTVSPost2010Prop44ColorIndex
 90
        5
102
RTVSPost2010Prop44ColorRGB
 90
      255
102
RTVSPost2010PropOp44
 70
     1
102
RTVSPost2010Prop45
280
     0
102
RTVSPost2010PropOp45
 70
     1
102
RTVSPost2010Prop46
 90
       50
102
RTVSPost2010PropOp46
 70
     1
102
RTVSPost2010Prop47
 90
       50
102
RTVSPost2010PropOp47
 70
     1
102
RTVSPost2010Prop48
 90
       50
102
RTVSPost2010PropOp48
 70
     1
102
RTVSPost2010Prop49
280
     0
102
RTVSPost2010PropOp49
 70
     1
102
RTVSPost2010Prop50
 90
       50
102
RTVSPost2010PropOp50
 70
     1
102
RTVSPost2010Prop51ColorIndex
 90
      256
102
RTVSPost2010Prop51ColorRGB
 90
-16777216
102
RTVSPost2010PropOp51
 70
     0
102
RTVSPost2010Prop52
140
1.0
102
RTVSPost2010PropOp52
 70
     0
102
RTVSPost2010Prop53
 90
        2
102
RTVSPost2010PropOp53
 70
     1
102
RTVSPost2010Prop54
  1
strokes_ogs.tif
102
RTVSPost2010PropOp54
 70
     1
102
RTVSPost2010Prop55
280
     0
102
RTVSPost2010PropOp55
 70
     1
102
RTVSPost2010Prop56
140
1.0
102
RTVSPost2010PropOp56
 70
     1
102
RTVSPost2010Prop57
140
1.0
102
RTVSPost2010PropOp57
 70
     1
  0
XRECORD
  5
308
102
{ACAD_REACTORS
330
307
102
}
330
307
100
AcDbXrecord
280
     1
102
RTVSPropertyOp0
 70
     1
102
RTVSPropertyOp1
 70
     1
102
RTVSPropertyOp2
 70
     1
102
RTVSPropertyOp3
 70
     1
102
RTVSPropertyOp4
 70
     1
102
RTVSPropertyOp5
 70
     1
102
RTVSPropertyOp6
 70
     1
102
RTVSPropertyOp7
 70
     1
102
RTVSPropertyOp8
 70
     1
102
RTVSPropertyOp9
 70
     1
102
RTVSPropertyOp10
 70
     1
102
RTVSPropertyOp11
 70
     1
102
RTVSPropertyOp12
 70
     1
102
RTVSPropertyOp13
 70
     1
102
RTVSPropertyOp14
 70
     1
102
RTVSPropertyOp15
 70
     1
102
RTVSPropertyOp16
 70
     1
102
RTVSPropertyOp17
 70
     1
102
RTVSPropertyOp18
 70
     1
102
RTVSPropertyOp19
 70
     1
102
RTVSPropertyOp20
 70
     1
102
RTVSPropertyOp21
 70
     1
102
RTVSPropertyOp22
 70
     1
102
RTVSPropertyOp23
 70
     1
102
RTVSPropertyOp24
 70
     1
102
RTVSPropertyOp25
 70
     1
102
RTVSPropertyOp26
 70
     1
102
RTVSPropertyOp27
 70
     1
102
RTVSPropertyOp28
 70
     1
102
RTVSPropertyOp29
 70
     1
102
RTVSPropertyOp30
 70
     1
102
RTVSPropertyOp31
 70
     1
102
RTVSPropertyOp32
 70
     1
102
RTVSPropertyOp33
 70
     1
102
RTVSPropertyOp34
 70
     1
102
RTVSPropertyOp35
 70
     1
102
RTVSPropertyOp36
 70
     1
102
RTVSPropertyOp37
 70
     1
102
RTVSPropertyOp38
 70
     1
102
RTVSPropertyOp39
 70
     1
102
RTVSPropertyOp40
 70
     1
102
RTVSPropertyOp41
 70
     1
102
RTVSPropertyOp42
 70
     1
102
RTVSPropertyOp43
 70
     1
102
RTVSPropertyOp44
 70
     1
102
RTVSPropertyOp45
 70
     1
102
RTVSPropertyOp46
 70
     1
102
RTVSPropertyOp47
 70
     1
102
RTVSPropertyOp48
 70
     1
102
RTVSPropertyOp49
 70
     1
102
RTVSPropertyOp50
 70
     1
102
RTVSPropertyOp51
 70
     0
102
RTVSPropertyOp52
 70
     0
102
RTVSPropertyOp53
 70
     1
102
RTVSPropertyOp54
 70
     1
102
RTVSPropertyOp55
 70
     1
102
RTVSPropertyOp56
 70
     1
102
RTVSPropertyOp57
 70
     1
102
RTVSPost2010Prop28
280
     0
102
RTVSPost2010PropOp28
 70
     1
102
RTVSPost2010Prop29
280
     1
102
RTVSPost2010PropOp29
 70
     1
102
RTVSPost2010Prop30
280
     1
102
RTVSPost2010PropOp30
 70
     1
102
RTVSPost2010Prop31
280
     0
102
RTVSPost2010PropOp31
 70
     1
102
RTVSPost2010Prop32
280
     0
102
RTVSPost2010PropOp32
 70
     1
102
RTVSPost2010Prop33
280
     0
102
RTVSPost2010PropOp33
 70
     1
102
RTVSPost2010Prop34
280
     0
102
RTVSPost2010PropOp34
 70
     1
102
RTVSPost2010Prop35
280
     0
102
RTVSPost2010PropOp35
 70
     1
102
RTVSPost2010Prop36
280
     0
102
RTVSPost2010PropOp36
 70
     1
102
RTVSPost2010Prop37
 90
       50
102
RTVSPost2010PropOp37
 70
     1
102
RTVSPost2010Prop38
140
0.0
102
RTVSPost2010PropOp38
 70
     1
102
RTVSPost2010Prop39
140
1.0
102
RTVSPost2010PropOp39
 70
     1
102
RTVSPost2010Prop40
 90
        0
102
RTVSPost2010PropOp40
 70
     1
102
RTVSPost2010Prop41ColorIndex
 90
       18
102
RTVSPost2010Prop41ColorRGB
 90
        0
102
RTVSPost2010PropOp41
 70
     1
102
RTVSPost2010Prop42
 90
       50
102
RTVSPost2010PropOp42
 70
     1
102
RTVSPost2010Prop43
 90
        3
102
RTVSPost2010PropOp43
 70
     1
102
RTVSPost2010Prop44ColorIndex
 90
        5
102
RTVSPost2010Prop44ColorRGB
 90
      255
102
RTVSPost2010PropOp44
 70
     1
102
RTVSPost2010Prop45
280
     0
102
RTVSPost2010PropOp45
 70
     1
102
RTVSPost2010Prop46
 90
       50
102
RTVSPost2010PropOp46
 70
     1
102
RTVSPost2010Prop47
 90
       50
102
RTVSPost2010PropOp47
 70
     1
102
RTVSPost2010Prop48
 90
       50
102
RTVSPost2010PropOp48
 70
     1
102
RTVSPost2010Prop49
280
     0
102
RTVSPost2010PropOp49
 70
     1
102
RTVSPost2010Prop50
 90
       50
102
RTVSPost2010PropOp50
 70
     1
102
RTVSPost2010Prop51ColorIndex
 90
      256
102
RTVSPost2010Prop51ColorRGB
 90
-16777216
102
RTVSPost2010PropOp51
 70
     0
102
RTVSPost2010Prop52
140
1.0
102
RTVSPost2010PropOp52
 70
     0
102
RTVSPost2010Prop53
 90
        2
102
RTVSPost2010PropOp53
 70
     1
102
RTVSPost2010Prop54
  1
strokes_ogs.tif
102
RTVSPost2010PropOp54
 70
     1
102
RTVSPost2010Prop55
280
     0
102
RTVSPost2010PropOp55
 70
     1
102
RTVSPost2010Prop56
140
1.0
102
RTVSPost2010PropOp56
 70
     1
102
RTVSPost2010Prop57
140
1.0
102
RTVSPost2010PropOp57
 70
     1
  0
XRECORD
  5
30A
102
{ACAD_REACTORS
330
309
102
}
330
309
100
AcDbXrecord
280
     1
102
RTVSPropertyOp0
 70
     1
102
RTVSPropertyOp1
 70
     1
102
RTVSPropertyOp2
 70
     1
102
RTVSPropertyOp3
 70
     1
102
RTVSPropertyOp4
 70
     1
102
RTVSPropertyOp5
 70
     1
102
RTVSPropertyOp6
 70
     1
102
RTVSPropertyOp7
 70
     1
102
RTVSPropertyOp8
 70
     1
102
RTVSPropertyOp9
 70
     1
102
RTVSPropertyOp10
 70
     1
102
RTVSPropertyOp11
 70
     1
102
RTVSPropertyOp12
 70
     1
102
RTVSPropertyOp13
 70
     1
102
RTVSPropertyOp14
 70
     1
102
RTVSPropertyOp15
 70
     1
102
RTVSPropertyOp16
 70
     1
102
RTVSPropertyOp17
 70
     1
102
RTVSPropertyOp18
 70
     1
102
RTVSPropertyOp19
 70
     1
102
RTVSPropertyOp20
 70
     1
102
RTVSPropertyOp21
 70
     1
102
RTVSPropertyOp22
 70
     1
102
RTVSPropertyOp23
 70
     1
102
RTVSPropertyOp24
 70
     1
102
RTVSPropertyOp25
 70
     1
102
RTVSPropertyOp26
 70
     1
102
RTVSPropertyOp27
 70
     1
102
RTVSPropertyOp28
 70
     1
102
RTVSPropertyOp29
 70
     1
102
RTVSPropertyOp30
 70
     1
102
RTVSPropertyOp31
 70
     1
102
RTVSPropertyOp32
 70
     1
102
RTVSPropertyOp33
 70
     1
102
RTVSPropertyOp34
 70
     1
102
RTVSPropertyOp35
 70
     1
102
RTVSPropertyOp36
 70
     1
102
RTVSPropertyOp37
 70
     1
102
RTVSPropertyOp38
 70
     1
102
RTVSPropertyOp39
 70
     1
102
RTVSPropertyOp40
 70
     1
102
RTVSPropertyOp41
 70
     1
102
RTVSPropertyOp42
 70
     1
102
RTVSPropertyOp43
 70
     1
102
RTVSPropertyOp44
 70
     1
102
RTVSPropertyOp45
 70
     1
102
RTVSPropertyOp46
 70
     1
102
RTVSPropertyOp47
 70
     1
102
RTVSPropertyOp48
 70
     1
102
RTVSPropertyOp49
 70
     1
102
RTVSPropertyOp50
 70
     1
102
RTVSPropertyOp51
 70
     0
102
RTVSPropertyOp52
 70
     0
102
RTVSPropertyOp53
 70
     1
102
RTVSPropertyOp54
 70
     1
102
RTVSPropertyOp55
 70
     1
102
RTVSPropertyOp56
 70
     1
102
RTVSPropertyOp57
 70
     1
102
RTVSPost2010Prop28
280
     0
102
RTVSPost2010PropOp28
 70
     1
102
RTVSPost2010Prop29
280
     1
102
RTVSPost2010PropOp29
 70
     1
102
RTVSPost2010Prop30
280
     1
102
RTVSPost2010PropOp30
 70
     1
102
RTVSPost2010Prop31
280
     0
102
RTVSPost2010PropOp31
 70
     1
102
RTVSPost2010Prop32
280
     0
102
RTVSPost2010PropOp32
 70
     1
102
RTVSPost2010Prop33
280
     0
102
RTVSPost2010PropOp33
 70
     1
102
RTVSPost2010Prop34
280
     0
102
RTVSPost2010PropOp34
 70
     1
102
RTVSPost2010Prop35
280
     0
102
RTVSPost2010PropOp35
 70
     1
102
RTVSPost2010Prop36
280
     0
102
RTVSPost2010PropOp36
 70
     1
102
RTVSPost2010Prop37
 90
       50
102
RTVSPost2010PropOp37
 70
     1
102
RTVSPost2010Prop38
140
0.0
102
RTVSPost2010PropOp38
 70
     1
102
RTVSPost2010Prop39
140
1.0
102
RTVSPost2010PropOp39
 70
     1
102
RTVSPost2010Prop40
 90
        0
102
RTVSPost2010PropOp40
 70
     1
102
RTVSPost2010Prop41ColorIndex
 90
       18
102
RTVSPost2010Prop41ColorRGB
 90
        0
102
RTVSPost2010PropOp41
 70
     1
102
RTVSPost2010Prop42
 90
       50
102
RTVSPost2010PropOp42
 70
     1
102
RTVSPost2010Prop43
 90
        3
102
RTVSPost2010PropOp43
 70
     1
102
RTVSPost2010Prop44ColorIndex
 90
        5
102
RTVSPost2010Prop44ColorRGB
 90
      255
102
RTVSPost2010PropOp44
 70
     1
102
RTVSPost2010Prop45
280
     0
102
RTVSPost2010PropOp45
 70
     1
102
RTVSPost2010Prop46
 90
       50
102
RTVSPost2010PropOp46
 70
     1
102
RTVSPost2010Prop47
 90
       50
102
RTVSPost2010PropOp47
 70
     1
102
RTVSPost2010Prop48
 90
       50
102
RTVSPost2010PropOp48
 70
     1
102
RTVSPost2010Prop49
280
     0
102
RTVSPost2010PropOp49
 70
     1
102
RTVSPost2010Prop50
 90
       50
102
RTVSPost2010PropOp50
 70
     1
102
RTVSPost2010Prop51ColorIndex
 90
      256
102
RTVSPost2010Prop51ColorRGB
 90
-16777216
102
RTVSPost2010PropOp51
 70
     0
102
RTVSPost2010Prop52
140
1.0
102
RTVSPost2010PropOp52
 70
     0
102
RTVSPost2010Prop53
 90
        2
102
RTVSPost2010PropOp53
 70
     1
102
RTVSPost2010Prop54
  1
strokes_ogs.tif
102
RTVSPost2010PropOp54
 70
     1
102
RTVSPost2010Prop55
280
     0
102
RTVSPost2010PropOp55
 70
     1
102
RTVSPost2010Prop56
140
1.0
102
RTVSPost2010PropOp56
 70
     1
102
RTVSPost2010Prop57
140
1.0
102
RTVSPost2010PropOp57
 70
     1
  0
XRECORD
  5
310
102
{ACAD_REACTORS
330
30F
102
}
330
30F
100
AcDbXrecord
280
     1
102
RTVSPropertyOp0
 70
     1
102
RTVSPropertyOp1
 70
     1
102
RTVSPropertyOp2
 70
     1
102
RTVSPropertyOp3
 70
     1
102
RTVSPropertyOp4
 70
     1
102
RTVSPropertyOp5
 70
     1
102
RTVSPropertyOp6
 70
     1
102
RTVSPropertyOp7
 70
     1
102
RTVSPropertyOp8
 70
     1
102
RTVSPropertyOp9
 70
     1
102
RTVSPropertyOp10
 70
     1
102
RTVSPropertyOp11
 70
     1
102
RTVSPropertyOp12
 70
     1
102
RTVSPropertyOp13
 70
     1
102
RTVSPropertyOp14
 70
     1
102
RTVSPropertyOp15
 70
     1
102
RTVSPropertyOp16
 70
     1
102
RTVSPropertyOp17
 70
     1
102
RTVSPropertyOp18
 70
     1
102
RTVSPropertyOp19
 70
     1
102
RTVSPropertyOp20
 70
     1
102
RTVSPropertyOp21
 70
     1
102
RTVSPropertyOp22
 70
     1
102
RTVSPropertyOp23
 70
     1
102
RTVSPropertyOp24
 70
     1
102
RTVSPropertyOp25
 70
     1
102
RTVSPropertyOp26
 70
     1
102
RTVSPropertyOp27
 70
     1
102
RTVSPropertyOp28
 70
     1
102
RTVSPropertyOp29
 70
     1
102
RTVSPropertyOp30
 70
     1
102
RTVSPropertyOp31
 70
     1
102
RTVSPropertyOp32
 70
     1
102
RTVSPropertyOp33
 70
     1
102
RTVSPropertyOp34
 70
     1
102
RTVSPropertyOp35
 70
     1
102
RTVSPropertyOp36
 70
     1
102
RTVSPropertyOp37
 70
     1
102
RTVSPropertyOp38
 70
     1
102
RTVSPropertyOp39
 70
     1
102
RTVSPropertyOp40
 70
     1
102
RTVSPropertyOp41
 70
     1
102
RTVSPropertyOp42
 70
     1
102
RTVSPropertyOp43
 70
     1
102
RTVSPropertyOp44
 70
     1
102
RTVSPropertyOp45
 70
     1
102
RTVSPropertyOp46
 70
     1
102
RTVSPropertyOp47
 70
     1
102
RTVSPropertyOp48
 70
     1
102
RTVSPropertyOp49
 70
     1
102
RTVSPropertyOp50
 70
     1
102
RTVSPropertyOp51
 70
     0
102
RTVSPropertyOp52
 70
     0
102
RTVSPropertyOp53
 70
     1
102
RTVSPropertyOp54
 70
     1
102
RTVSPropertyOp55
 70
     1
102
RTVSPropertyOp56
 70
     1
102
RTVSPropertyOp57
 70
     1
102
RTVSPost2010Prop28
280
     0
102
RTVSPost2010PropOp28
 70
     1
102
RTVSPost2010Prop29
280
     1
102
RTVSPost2010PropOp29
 70
     1
102
RTVSPost2010Prop30
280
     1
102
RTVSPost2010PropOp30
 70
     1
102
RTVSPost2010Prop31
280
     0
102
RTVSPost2010PropOp31
 70
     1
102
RTVSPost2010Prop32
280
     0
102
RTVSPost2010PropOp32
 70
     1
102
RTVSPost2010Prop33
280
     0
102
RTVSPost2010PropOp33
 70
     1
102
RTVSPost2010Prop34
280
     0
102
RTVSPost2010PropOp34
 70
     1
102
RTVSPost2010Prop35
280
     0
102
RTVSPost2010PropOp35
 70
     1
102
RTVSPost2010Prop36
280
     0
102
RTVSPost2010PropOp36
 70
     1
102
RTVSPost2010Prop37
 90
       50
102
RTVSPost2010PropOp37
 70
     1
102
RTVSPost2010Prop38
140
0.0
102
RTVSPost2010PropOp38
 70
     1
102
RTVSPost2010Prop39
140
1.0
102
RTVSPost2010PropOp39
 70
     1
102
RTVSPost2010Prop40
 90
        0
102
RTVSPost2010PropOp40
 70
     1
102
RTVSPost2010Prop41ColorIndex
 90
       18
102
RTVSPost2010Prop41ColorRGB
 90
        0
102
RTVSPost2010PropOp41
 70
     1
102
RTVSPost2010Prop42
 90
       50
102
RTVSPost2010PropOp42
 70
     1
102
RTVSPost2010Prop43
 90
        3
102
RTVSPost2010PropOp43
 70
     1
102
RTVSPost2010Prop44ColorIndex
 90
        5
102
RTVSPost2010Prop44ColorRGB
 90
      255
102
RTVSPost2010PropOp44
 70
     1
102
RTVSPost2010Prop45
280
     0
102
RTVSPost2010PropOp45
 70
     1
102
RTVSPost2010Prop46
 90
       50
102
RTVSPost2010PropOp46
 70
     1
102
RTVSPost2010Prop47
 90
       50
102
RTVSPost2010PropOp47
 70
     1
102
RTVSPost2010Prop48
 90
       50
102
RTVSPost2010PropOp48
 70
     1
102
RTVSPost2010Prop49
280
     0
102
RTVSPost2010PropOp49
 70
     1
102
RTVSPost2010Prop50
 90
       50
102
RTVSPost2010PropOp50
 70
     1
102
RTVSPost2010Prop51ColorIndex
 90
      256
102
RTVSPost2010Prop51ColorRGB
 90
-16777216
102
RTVSPost2010PropOp51
 70
     0
102
RTVSPost2010Prop52
140
1.0
102
RTVSPost2010PropOp52
 70
     0
102
RTVSPost2010Prop53
 90
        2
102
RTVSPost2010PropOp53
 70
     1
102
RTVSPost2010Prop54
  1
strokes_ogs.tif
102
RTVSPost2010PropOp54
 70
     1
102
RTVSPost2010Prop55
280
     0
102
RTVSPost2010PropOp55
 70
     1
102
RTVSPost2010Prop56
140
1.0
102
RTVSPost2010PropOp56
 70
     1
102
RTVSPost2010Prop57
140
1.0
102
RTVSPost2010PropOp57
 70
     1
  0
XRECORD
  5
324
102
{ACAD_REACTORS
330
323
102
}
330
323
100
AcDbXrecord
280
     1
102
RTVSPropertyOp0
 70
     0
102
RTVSPropertyOp1
 70
     0
102
RTVSPropertyOp2
 70
     0
102
RTVSPropertyOp3
 70
     0
102
RTVSPropertyOp4
 70
     0
102
RTVSPropertyOp5
 70
     0
102
RTVSPropertyOp6
 70
     0
102
RTVSPropertyOp7
 70
     0
102
RTVSPropertyOp8
 70
     0
102
RTVSPropertyOp9
 70
     0
102
RTVSPropertyOp10
 70
     0
102
RTVSPropertyOp11
 70
     0
102
RTVSPropertyOp12
 70
     0
102
RTVSPropertyOp13
 70
     0
102
RTVSPropertyOp14
 70
     2
102
RTVSPropertyOp15
 70
     0
102
RTVSPropertyOp16
 70
     0
102
RTVSPropertyOp17
 70
     0
102
RTVSPropertyOp18
 70
     0
102
RTVSPropertyOp19
 70
     0
102
RTVSPropertyOp20
 70
     0
102
RTVSPropertyOp21
 70
     0
102
RTVSPropertyOp22
 70
     0
102
RTVSPropertyOp23
 70
     0
102
RTVSPropertyOp24
 70
     0
102
RTVSPropertyOp25
 70
     0
102
RTVSPropertyOp26
 70
     0
102
RTVSPropertyOp27
 70
     0
102
RTVSPropertyOp28
 70
     0
102
RTVSPropertyOp29
 70
     0
102
RTVSPropertyOp30
 70
     0
102
RTVSPropertyOp31
 70
     0
102
RTVSPropertyOp32
 70
     0
102
RTVSPropertyOp33
 70
     0
102
RTVSPropertyOp34
 70
     0
102
RTVSPropertyOp35
 70
     0
102
RTVSPropertyOp36
 70
     0
102
RTVSPropertyOp37
 70
     0
102
RTVSPropertyOp38
 70
     0
102
RTVSPropertyOp39
 70
     0
102
RTVSPropertyOp40
 70
     0
102
RTVSPropertyOp41
 70
     0
102
RTVSPropertyOp42
 70
     0
102
RTVSPropertyOp43
 70
     0
102
RTVSPropertyOp44
 70
     0
102
RTVSPropertyOp45
 70
     0
102
RTVSPropertyOp46
 70
     0
102
RTVSPropertyOp47
 70
     0
102
RTVSPropertyOp48
 70
     0
102
RTVSPropertyOp49
 70
     0
102
RTVSPropertyOp50
 70
     0
102
RTVSPropertyOp51
 70
     0
102
RTVSPropertyOp52
 70
     0
102
RTVSPropertyOp53
 70
     0
102
RTVSPropertyOp54
 70
     0
102
RTVSPropertyOp55
 70
     0
102
RTVSPropertyOp56
 70
     0
102
RTVSPropertyOp57
 70
     0
102
RTVSPost2010Prop28
280
     0
102
RTVSPost2010PropOp28
 70
     0
102
RTVSPost2010Prop29
280
     1
102
RTVSPost2010PropOp29
 70
     0
102
RTVSPost2010Prop30
280
     1
102
RTVSPost2010PropOp30
 70
     0
102
RTVSPost2010Prop31
280
     0
102
RTVSPost2010PropOp31
 70
     0
102
RTVSPost2010Prop32
280
     0
102
RTVSPost2010PropOp32
 70
     0
102
RTVSPost2010Prop33
280
     0
102
RTVSPost2010PropOp33
 70
     0
102
RTVSPost2010Prop34
280
     0
102
RTVSPost2010PropOp34
 70
     0
102
RTVSPost2010Prop35
280
     0
102
RTVSPost2010PropOp35
 70
     0
102
RTVSPost2010Prop36
280
     0
102
RTVSPost2010PropOp36
 70
     0
102
RTVSPost2010Prop37
 90
       50
102
RTVSPost2010PropOp37
 70
     0
102
RTVSPost2010Prop38
140
0.0
102
RTVSPost2010PropOp38
 70
     0
102
RTVSPost2010Prop39
140
1.0
102
RTVSPost2010PropOp39
 70
     0
102
RTVSPost2010Prop40
 90
        0
102
RTVSPost2010PropOp40
 70
     0
102
RTVSPost2010Prop41ColorIndex
 90
       18
102
RTVSPost2010Prop41ColorRGB
 90
        0
102
RTVSPost2010PropOp41
 70
     0
102
RTVSPost2010Prop42
 90
       50
102
RTVSPost2010PropOp42
 70
     0
102
RTVSPost2010Prop43
 90
        3
102
RTVSPost2010PropOp43
 70
     0
102
RTVSPost2010Prop44ColorIndex
 90
        5
102
RTVSPost2010Prop44ColorRGB
 90
      255
102
RTVSPost2010PropOp44
 70
     0
102
RTVSPost2010Prop45
280
     0
102
RTVSPost2010PropOp45
 70
     0
102
RTVSPost2010Prop46
 90
       50
102
RTVSPost2010PropOp46
 70
     0
102
RTVSPost2010Prop47
 90
       50
102
RTVSPost2010PropOp47
 70
     0
102
RTVSPost2010Prop48
 90
       50
102
RTVSPost2010PropOp48
 70
     0
102
RTVSPost2010Prop49
280
     0
102
RTVSPost2010PropOp49
 70
     0
102
RTVSPost2010Prop50
 90
       50
102
RTVSPost2010PropOp50
 70
     0
102
RTVSPost2010Prop51ColorIndex
 90
      256
102
RTVSPost2010Prop51ColorRGB
 90
-16777216
102
RTVSPost2010PropOp51
 70
     0
102
RTVSPost2010Prop52
140
1.0
102
RTVSPost2010PropOp52
 70
     0
102
RTVSPost2010Prop53
 90
        2
102
RTVSPost2010PropOp53
 70
     0
102
RTVSPost2010Prop54
  1
strokes_ogs.tif
102
RTVSPost2010PropOp54
 70
     0
102
RTVSPost2010Prop55
280
     0
102
RTVSPost2010PropOp55
 70
     0
102
RTVSPost2010Prop56
140
1.0
102
RTVSPost2010PropOp56
 70
     0
102
RTVSPost2010Prop57
140
1.0
102
RTVSPost2010PropOp57
 70
     0
  0
XRECORD
  5
31E
102
{ACAD_REACTORS
330
31D
102
}
330
31D
100
AcDbXrecord
280
     1
102
RTVSPropertyOp0
 70
     1
102
RTVSPropertyOp1
 70
     1
102
RTVSPropertyOp2
 70
     1
102
RTVSPropertyOp3
 70
     1
102
RTVSPropertyOp4
 70
     1
102
RTVSPropertyOp5
 70
     1
102
RTVSPropertyOp6
 70
     1
102
RTVSPropertyOp7
 70
     1
102
RTVSPropertyOp8
 70
     1
102
RTVSPropertyOp9
 70
     1
102
RTVSPropertyOp10
 70
     1
102
RTVSPropertyOp11
 70
     1
102
RTVSPropertyOp12
 70
     1
102
RTVSPropertyOp13
 70
     1
102
RTVSPropertyOp14
 70
     1
102
RTVSPropertyOp15
 70
     1
102
RTVSPropertyOp16
 70
     1
102
RTVSPropertyOp17
 70
     1
102
RTVSPropertyOp18
 70
     1
102
RTVSPropertyOp19
 70
     1
102
RTVSPropertyOp20
 70
     1
102
RTVSPropertyOp21
 70
     1
102
RTVSPropertyOp22
 70
     1
102
RTVSPropertyOp23
 70
     1
102
RTVSPropertyOp24
 70
     1
102
RTVSPropertyOp25
 70
     1
102
RTVSPropertyOp26
 70
     1
102
RTVSPropertyOp27
 70
     1
102
RTVSPropertyOp28
 70
     1
102
RTVSPropertyOp29
 70
     1
102
RTVSPropertyOp30
 70
     1
102
RTVSPropertyOp31
 70
     1
102
RTVSPropertyOp32
 70
     1
102
RTVSPropertyOp33
 70
     1
102
RTVSPropertyOp34
 70
     1
102
RTVSPropertyOp35
 70
     1
102
RTVSPropertyOp36
 70
     1
102
RTVSPropertyOp37
 70
     1
102
RTVSPropertyOp38
 70
     1
102
RTVSPropertyOp39
 70
     1
102
RTVSPropertyOp40
 70
     1
102
RTVSPropertyOp41
 70
     1
102
RTVSPropertyOp42
 70
     1
102
RTVSPropertyOp43
 70
     1
102
RTVSPropertyOp44
 70
     1
102
RTVSPropertyOp45
 70
     1
102
RTVSPropertyOp46
 70
     1
102
RTVSPropertyOp47
 70
     1
102
RTVSPropertyOp48
 70
     1
102
RTVSPropertyOp49
 70
     1
102
RTVSPropertyOp50
 70
     1
102
RTVSPropertyOp51
 70
     0
102
RTVSPropertyOp52
 70
     0
102
RTVSPropertyOp53
 70
     1
102
RTVSPropertyOp54
 70
     1
102
RTVSPropertyOp55
 70
     1
102
RTVSPropertyOp56
 70
     1
102
RTVSPropertyOp57
 70
     1
102
RTVSPost2010Prop28
280
     0
102
RTVSPost2010PropOp28
 70
     1
102
RTVSPost2010Prop29
280
     1
102
RTVSPost2010PropOp29
 70
     1
102
RTVSPost2010Prop30
280
     1
102
RTVSPost2010PropOp30
 70
     1
102
RTVSPost2010Prop31
280
     0
102
RTVSPost2010PropOp31
 70
     1
102
RTVSPost2010Prop32
280
     0
102
RTVSPost2010PropOp32
 70
     1
102
RTVSPost2010Prop33
280
     0
102
RTVSPost2010PropOp33
 70
     1
102
RTVSPost2010Prop34
280
     0
102
RTVSPost2010PropOp34
 70
     1
102
RTVSPost2010Prop35
280
     0
102
RTVSPost2010PropOp35
 70
     1
102
RTVSPost2010Prop36
280
     0
102
RTVSPost2010PropOp36
 70
     1
102
RTVSPost2010Prop37
 90
       50
102
RTVSPost2010PropOp37
 70
     1
102
RTVSPost2010Prop38
140
0.0
102
RTVSPost2010PropOp38
 70
     1
102
RTVSPost2010Prop39
140
1.0
102
RTVSPost2010PropOp39
 70
     1
102
RTVSPost2010Prop40
 90
        0
102
RTVSPost2010PropOp40
 70
     1
102
RTVSPost2010Prop41ColorIndex
 90
       18
102
RTVSPost2010Prop41ColorRGB
 90
        0
102
RTVSPost2010PropOp41
 70
     1
102
RTVSPost2010Prop42
 90
       50
102
RTVSPost2010PropOp42
 70
     1
102
RTVSPost2010Prop43
 90
        3
102
RTVSPost2010PropOp43
 70
     1
102
RTVSPost2010Prop44ColorIndex
 90
        5
102
RTVSPost2010Prop44ColorRGB
 90
      255
102
RTVSPost2010PropOp44
 70
     1
102
RTVSPost2010Prop45
280
     0
102
RTVSPost2010PropOp45
 70
     1
102
RTVSPost2010Prop46
 90
       50
102
RTVSPost2010PropOp46
 70
     1
102
RTVSPost2010Prop47
 90
       50
102
RTVSPost2010PropOp47
 70
     1
102
RTVSPost2010Prop48
 90
       50
102
RTVSPost2010PropOp48
 70
     1
102
RTVSPost2010Prop49
280
     0
102
RTVSPost2010PropOp49
 70
     1
102
RTVSPost2010Prop50
 90
       50
102
RTVSPost2010PropOp50
 70
     1
102
RTVSPost2010Prop51ColorIndex
 90
      256
102
RTVSPost2010Prop51ColorRGB
 90
-16777216
102
RTVSPost2010PropOp51
 70
     0
102
RTVSPost2010Prop52
140
1.0
102
RTVSPost2010PropOp52
 70
     0
102
RTVSPost2010Prop53
 90
        2
102
RTVSPost2010PropOp53
 70
     1
102
RTVSPost2010Prop54
  1
strokes_ogs.tif
102
RTVSPost2010PropOp54
 70
     1
102
RTVSPost2010Prop55
280
     0
102
RTVSPost2010PropOp55
 70
     1
102
RTVSPost2010Prop56
140
1.0
102
RTVSPost2010PropOp56
 70
     1
102
RTVSPost2010Prop57
140
1.0
102
RTVSPost2010PropOp57
 70
     1
  0
XRECORD
  5
326
102
{ACAD_REACTORS
330
325
102
}
330
325
100
AcDbXrecord
280
     1
102
RTVSPropertyOp0
 70
     0
102
RTVSPropertyOp1
 70
     0
102
RTVSPropertyOp2
 70
     0
102
RTVSPropertyOp3
 70
     0
102
RTVSPropertyOp4
 70
     0
102
RTVSPropertyOp5
 70
     0
102
RTVSPropertyOp6
 70
     0
102
RTVSPropertyOp7
 70
     0
102
RTVSPropertyOp8
 70
     0
102
RTVSPropertyOp9
 70
     0
102
RTVSPropertyOp10
 70
     0
102
RTVSPropertyOp11
 70
     0
102
RTVSPropertyOp12
 70
     0
102
RTVSPropertyOp13
 70
     0
102
RTVSPropertyOp14
 70
     2
102
RTVSPropertyOp15
 70
     0
102
RTVSPropertyOp16
 70
     0
102
RTVSPropertyOp17
 70
     0
102
RTVSPropertyOp18
 70
     0
102
RTVSPropertyOp19
 70
     0
102
RTVSPropertyOp20
 70
     0
102
RTVSPropertyOp21
 70
     0
102
RTVSPropertyOp22
 70
     0
102
RTVSPropertyOp23
 70
     0
102
RTVSPropertyOp24
 70
     0
102
RTVSPropertyOp25
 70
     0
102
RTVSPropertyOp26
 70
     0
102
RTVSPropertyOp27
 70
     0
102
RTVSPropertyOp28
 70
     0
102
RTVSPropertyOp29
 70
     0
102
RTVSPropertyOp30
 70
     0
102
RTVSPropertyOp31
 70
     0
102
RTVSPropertyOp32
 70
     0
102
RTVSPropertyOp33
 70
     0
102
RTVSPropertyOp34
 70
     0
102
RTVSPropertyOp35
 70
     0
102
RTVSPropertyOp36
 70
     0
102
RTVSPropertyOp37
 70
     0
102
RTVSPropertyOp38
 70
     0
102
RTVSPropertyOp39
 70
     0
102
RTVSPropertyOp40
 70
     0
102
RTVSPropertyOp41
 70
     0
102
RTVSPropertyOp42
 70
     0
102
RTVSPropertyOp43
 70
     0
102
RTVSPropertyOp44
 70
     0
102
RTVSPropertyOp45
 70
     0
102
RTVSPropertyOp46
 70
     0
102
RTVSPropertyOp47
 70
     0
102
RTVSPropertyOp48
 70
     0
102
RTVSPropertyOp49
 70
     0
102
RTVSPropertyOp50
 70
     0
102
RTVSPropertyOp51
 70
     0
102
RTVSPropertyOp52
 70
     0
102
RTVSPropertyOp53
 70
     0
102
RTVSPropertyOp54
 70
     0
102
RTVSPropertyOp55
 70
     0
102
RTVSPropertyOp56
 70
     0
102
RTVSPropertyOp57
 70
     0
102
RTVSPost2010Prop28
280
     0
102
RTVSPost2010PropOp28
 70
     0
102
RTVSPost2010Prop29
280
     1
102
RTVSPost2010PropOp29
 70
     0
102
RTVSPost2010Prop30
280
     1
102
RTVSPost2010PropOp30
 70
     0
102
RTVSPost2010Prop31
280
     0
102
RTVSPost2010PropOp31
 70
     0
102
RTVSPost2010Prop32
280
     0
102
RTVSPost2010PropOp32
 70
     0
102
RTVSPost2010Prop33
280
     0
102
RTVSPost2010PropOp33
 70
     0
102
RTVSPost2010Prop34
280
     0
102
RTVSPost2010PropOp34
 70
     0
102
RTVSPost2010Prop35
280
     0
102
RTVSPost2010PropOp35
 70
     0
102
RTVSPost2010Prop36
280
     0
102
RTVSPost2010PropOp36
 70
     0
102
RTVSPost2010Prop37
 90
       50
102
RTVSPost2010PropOp37
 70
     0
102
RTVSPost2010Prop38
140
0.0
102
RTVSPost2010PropOp38
 70
     0
102
RTVSPost2010Prop39
140
1.0
102
RTVSPost2010PropOp39
 70
     0
102
RTVSPost2010Prop40
 90
        0
102
RTVSPost2010PropOp40
 70
     0
102
RTVSPost2010Prop41ColorIndex
 90
       18
102
RTVSPost2010Prop41ColorRGB
 90
        0
102
RTVSPost2010PropOp41
 70
     0
102
RTVSPost2010Prop42
 90
       50
102
RTVSPost2010PropOp42
 70
     0
102
RTVSPost2010Prop43
 90
        3
102
RTVSPost2010PropOp43
 70
     0
102
RTVSPost2010Prop44ColorIndex
 90
        5
102
RTVSPost2010Prop44ColorRGB
 90
      255
102
RTVSPost2010PropOp44
 70
     0
102
RTVSPost2010Prop45
280
     0
102
RTVSPost2010PropOp45
 70
     0
102
RTVSPost2010Prop46
 90
       50
102
RTVSPost2010PropOp46
 70
     0
102
RTVSPost2010Prop47
 90
       50
102
RTVSPost2010PropOp47
 70
     0
102
RTVSPost2010Prop48
 90
       50
102
RTVSPost2010PropOp48
 70
     0
102
RTVSPost2010Prop49
280
     0
102
RTVSPost2010PropOp49
 70
     0
102
RTVSPost2010Prop50
 90
       50
102
RTVSPost2010PropOp50
 70
     0
102
RTVSPost2010Prop51ColorIndex
 90
      256
102
RTVSPost2010Prop51ColorRGB
 90
-16777216
102
RTVSPost2010PropOp51
 70
     0
102
RTVSPost2010Prop52
140
1.0
102
RTVSPost2010PropOp52
 70
     0
102
RTVSPost2010Prop53
 90
        2
102
RTVSPost2010PropOp53
 70
     0
102
RTVSPost2010Prop54
  1
strokes_ogs.tif
102
RTVSPost2010PropOp54
 70
     0
102
RTVSPost2010Prop55
280
     0
102
RTVSPost2010PropOp55
 70
     0
102
RTVSPost2010Prop56
140
1.0
102
RTVSPost2010PropOp56
 70
     0
102
RTVSPost2010Prop57
140
1.0
102
RTVSPost2010PropOp57
 70
     0
  0
XRECORD
  5
314
102
{ACAD_REACTORS
330
313
102
}
330
313
100
AcDbXrecord
280
     1
102
RTVSPropertyOp0
 70
     1
102
RTVSPropertyOp1
 70
     1
102
RTVSPropertyOp2
 70
     1
102
RTVSPropertyOp3
 70
     1
102
RTVSPropertyOp4
 70
     1
102
RTVSPropertyOp5
 70
     1
102
RTVSPropertyOp6
 70
     1
102
RTVSPropertyOp7
 70
     1
102
RTVSPropertyOp8
 70
     1
102
RTVSPropertyOp9
 70
     1
102
RTVSPropertyOp10
 70
     1
102
RTVSPropertyOp11
 70
     1
102
RTVSPropertyOp12
 70
     1
102
RTVSPropertyOp13
 70
     1
102
RTVSPropertyOp14
 70
     1
102
RTVSPropertyOp15
 70
     1
102
RTVSPropertyOp16
 70
     1
102
RTVSPropertyOp17
 70
     1
102
RTVSPropertyOp18
 70
     1
102
RTVSPropertyOp19
 70
     1
102
RTVSPropertyOp20
 70
     1
102
RTVSPropertyOp21
 70
     1
102
RTVSPropertyOp22
 70
     1
102
RTVSPropertyOp23
 70
     1
102
RTVSPropertyOp24
 70
     1
102
RTVSPropertyOp25
 70
     1
102
RTVSPropertyOp26
 70
     1
102
RTVSPropertyOp27
 70
     1
102
RTVSPropertyOp28
 70
     1
102
RTVSPropertyOp29
 70
     1
102
RTVSPropertyOp30
 70
     1
102
RTVSPropertyOp31
 70
     1
102
RTVSPropertyOp32
 70
     1
102
RTVSPropertyOp33
 70
     1
102
RTVSPropertyOp34
 70
     1
102
RTVSPropertyOp35
 70
     1
102
RTVSPropertyOp36
 70
     1
102
RTVSPropertyOp37
 70
     1
102
RTVSPropertyOp38
 70
     1
102
RTVSPropertyOp39
 70
     1
102
RTVSPropertyOp40
 70
     1
102
RTVSPropertyOp41
 70
     1
102
RTVSPropertyOp42
 70
     1
102
RTVSPropertyOp43
 70
     1
102
RTVSPropertyOp44
 70
     1
102
RTVSPropertyOp45
 70
     1
102
RTVSPropertyOp46
 70
     1
102
RTVSPropertyOp47
 70
     1
102
RTVSPropertyOp48
 70
     1
102
RTVSPropertyOp49
 70
     1
102
RTVSPropertyOp50
 70
     1
102
RTVSPropertyOp51
 70
     0
102
RTVSPropertyOp52
 70
     0
102
RTVSPropertyOp53
 70
     1
102
RTVSPropertyOp54
 70
     1
102
RTVSPropertyOp55
 70
     1
102
RTVSPropertyOp56
 70
     1
102
RTVSPropertyOp57
 70
     1
102
RTVSPost2010Prop28
280
     0
102
RTVSPost2010PropOp28
 70
     1
102
RTVSPost2010Prop29
280
     1
102
RTVSPost2010PropOp29
 70
     1
102
RTVSPost2010Prop30
280
     1
102
RTVSPost2010PropOp30
 70
     1
102
RTVSPost2010Prop31
280
     0
102
RTVSPost2010PropOp31
 70
     1
102
RTVSPost2010Prop32
280
     0
102
RTVSPost2010PropOp32
 70
     1
102
RTVSPost2010Prop33
280
     0
102
RTVSPost2010PropOp33
 70
     1
102
RTVSPost2010Prop34
280
     0
102
RTVSPost2010PropOp34
 70
     1
102
RTVSPost2010Prop35
280
     0
102
RTVSPost2010PropOp35
 70
     1
102
RTVSPost2010Prop36
280
     0
102
RTVSPost2010PropOp36
 70
     1
102
RTVSPost2010Prop37
 90
       50
102
RTVSPost2010PropOp37
 70
     1
102
RTVSPost2010Prop38
140
0.0
102
RTVSPost2010PropOp38
 70
     1
102
RTVSPost2010Prop39
140
1.0
102
RTVSPost2010PropOp39
 70
     1
102
RTVSPost2010Prop40
 90
        0
102
RTVSPost2010PropOp40
 70
     1
102
RTVSPost2010Prop41ColorIndex
 90
       18
102
RTVSPost2010Prop41ColorRGB
 90
        0
102
RTVSPost2010PropOp41
 70
     1
102
RTVSPost2010Prop42
 90
       50
102
RTVSPost2010PropOp42
 70
     1
102
RTVSPost2010Prop43
 90
        3
102
RTVSPost2010PropOp43
 70
     1
102
RTVSPost2010Prop44ColorIndex
 90
        5
102
RTVSPost2010Prop44ColorRGB
 90
      255
102
RTVSPost2010PropOp44
 70
     1
102
RTVSPost2010Prop45
280
     0
102
RTVSPost2010PropOp45
 70
     1
102
RTVSPost2010Prop46
 90
       50
102
RTVSPost2010PropOp46
 70
     1
102
RTVSPost2010Prop47
 90
       50
102
RTVSPost2010PropOp47
 70
     1
102
RTVSPost2010Prop48
 90
       50
102
RTVSPost2010PropOp48
 70
     1
102
RTVSPost2010Prop49
280
     0
102
RTVSPost2010PropOp49
 70
     1
102
RTVSPost2010Prop50
 90
       50
102
RTVSPost2010PropOp50
 70
     1
102
RTVSPost2010Prop51ColorIndex
 90
      256
102
RTVSPost2010Prop51ColorRGB
 90
-16777216
102
RTVSPost2010PropOp51
 70
     0
102
RTVSPost2010Prop52
140
1.0
102
RTVSPost2010PropOp52
 70
     0
102
RTVSPost2010Prop53
 90
        2
102
RTVSPost2010PropOp53
 70
     1
102
RTVSPost2010Prop54
  1
strokes_ogs.tif
102
RTVSPost2010PropOp54
 70
     1
102
RTVSPost2010Prop55
280
     0
102
RTVSPost2010PropOp55
 70
     1
102
RTVSPost2010Prop56
140
1.0
102
RTVSPost2010PropOp56
 70
     1
102
RTVSPost2010Prop57
140
1.0
102
RTVSPost2010PropOp57
 70
     1
  0
XRECORD
  5
332
102
{ACAD_REACTORS
330
331
102
}
330
331
100
AcDbXrecord
280
     1
102
RTVSPropertyOp0
 70
     1
102
RTVSPropertyOp1
 70
     1
102
RTVSPropertyOp2
 70
     1
102
RTVSPropertyOp3
 70
     1
102
RTVSPropertyOp4
 70
     1
102
RTVSPropertyOp5
 70
     1
102
RTVSPropertyOp6
 70
     1
102
RTVSPropertyOp7
 70
     1
102
RTVSPropertyOp8
 70
     1
102
RTVSPropertyOp9
 70
     1
102
RTVSPropertyOp10
 70
     1
102
RTVSPropertyOp11
 70
     1
102
RTVSPropertyOp12
 70
     1
102
RTVSPropertyOp13
 70
     1
102
RTVSPropertyOp14
 70
     1
102
RTVSPropertyOp15
 70
     1
102
RTVSPropertyOp16
 70
     1
102
RTVSPropertyOp17
 70
     1
102
RTVSPropertyOp18
 70
     1
102
RTVSPropertyOp19
 70
     1
102
RTVSPropertyOp20
 70
     1
102
RTVSPropertyOp21
 70
     1
102
RTVSPropertyOp22
 70
     1
102
RTVSPropertyOp23
 70
     1
102
RTVSPropertyOp24
 70
     1
102
RTVSPropertyOp25
 70
     1
102
RTVSPropertyOp26
 70
     1
102
RTVSPropertyOp27
 70
     1
102
RTVSPropertyOp28
 70
     1
102
RTVSPropertyOp29
 70
     1
102
RTVSPropertyOp30
 70
     1
102
RTVSPropertyOp31
 70
     1
102
RTVSPropertyOp32
 70
     1
102
RTVSPropertyOp33
 70
     1
102
RTVSPropertyOp34
 70
     1
102
RTVSPropertyOp35
 70
     1
102
RTVSPropertyOp36
 70
     1
102
RTVSPropertyOp37
 70
     1
102
RTVSPropertyOp38
 70
     1
102
RTVSPropertyOp39
 70
     1
102
RTVSPropertyOp40
 70
     1
102
RTVSPropertyOp41
 70
     1
102
RTVSPropertyOp42
 70
     1
102
RTVSPropertyOp43
 70
     1
102
RTVSPropertyOp44
 70
     1
102
RTVSPropertyOp45
 70
     1
102
RTVSPropertyOp46
 70
     1
102
RTVSPropertyOp47
 70
     1
102
RTVSPropertyOp48
 70
     1
102
RTVSPropertyOp49
 70
     1
102
RTVSPropertyOp50
 70
     1
102
RTVSPropertyOp51
 70
     0
102
RTVSPropertyOp52
 70
     0
102
RTVSPropertyOp53
 70
     1
102
RTVSPropertyOp54
 70
     1
102
RTVSPropertyOp55
 70
     1
102
RTVSPropertyOp56
 70
     1
102
RTVSPropertyOp57
 70
     1
102
RTVSPost2010Prop28
280
     0
102
RTVSPost2010PropOp28
 70
     1
102
RTVSPost2010Prop29
280
     1
102
RTVSPost2010PropOp29
 70
     1
102
RTVSPost2010Prop30
280
     1
102
RTVSPost2010PropOp30
 70
     1
102
RTVSPost2010Prop31
280
     0
102
RTVSPost2010PropOp31
 70
     1
102
RTVSPost2010Prop32
280
     0
102
RTVSPost2010PropOp32
 70
     1
102
RTVSPost2010Prop33
280
     0
102
RTVSPost2010PropOp33
 70
     1
102
RTVSPost2010Prop34
280
     0
102
RTVSPost2010PropOp34
 70
     1
102
RTVSPost2010Prop35
280
     0
102
RTVSPost2010PropOp35
 70
     1
102
RTVSPost2010Prop36
280
     0
102
RTVSPost2010PropOp36
 70
     1
102
RTVSPost2010Prop37
 90
       50
102
RTVSPost2010PropOp37
 70
     1
102
RTVSPost2010Prop38
140
0.0
102
RTVSPost2010PropOp38
 70
     1
102
RTVSPost2010Prop39
140
1.0
102
RTVSPost2010PropOp39
 70
     1
102
RTVSPost2010Prop40
 90
        0
102
RTVSPost2010PropOp40
 70
     1
102
RTVSPost2010Prop41ColorIndex
 90
       18
102
RTVSPost2010Prop41ColorRGB
 90
        0
102
RTVSPost2010PropOp41
 70
     1
102
RTVSPost2010Prop42
 90
       50
102
RTVSPost2010PropOp42
 70
     1
102
RTVSPost2010Prop43
 90
        3
102
RTVSPost2010PropOp43
 70
     1
102
RTVSPost2010Prop44ColorIndex
 90
        5
102
RTVSPost2010Prop44ColorRGB
 90
      255
102
RTVSPost2010PropOp44
 70
     1
102
RTVSPost2010Prop45
280
     0
102
RTVSPost2010PropOp45
 70
     1
102
RTVSPost2010Prop46
 90
       50
102
RTVSPost2010PropOp46
 70
     1
102
RTVSPost2010Prop47
 90
       50
102
RTVSPost2010PropOp47
 70
     1
102
RTVSPost2010Prop48
 90
       50
102
RTVSPost2010PropOp48
 70
     1
102
RTVSPost2010Prop49
280
     0
102
RTVSPost2010PropOp49
 70
     1
102
RTVSPost2010Prop50
 90
       50
102
RTVSPost2010PropOp50
 70
     1
102
RTVSPost2010Prop51ColorIndex
 90
      256
102
RTVSPost2010Prop51ColorRGB
 90
-16777216
102
RTVSPost2010PropOp51
 70
     0
102
RTVSPost2010Prop52
140
1.0
102
RTVSPost2010PropOp52
 70
     0
102
RTVSPost2010Prop53
 90
        2
102
RTVSPost2010PropOp53
 70
     1
102
RTVSPost2010Prop54
  1
strokes_ogs.tif
102
RTVSPost2010PropOp54
 70
     1
102
RTVSPost2010Prop55
280
     0
102
RTVSPost2010PropOp55
 70
     1
102
RTVSPost2010Prop56
140
1.0
102
RTVSPost2010PropOp56
 70
     1
102
RTVSPost2010Prop57
140
1.0
102
RTVSPost2010PropOp57
 70
     1
  0
XRECORD
  5
330
102
{ACAD_REACTORS
330
32F
102
}
330
32F
100
AcDbXrecord
280
     1
102
RTVSPropertyOp0
 70
     1
102
RTVSPropertyOp1
 70
     1
102
RTVSPropertyOp2
 70
     1
102
RTVSPropertyOp3
 70
     1
102
RTVSPropertyOp4
 70
     1
102
RTVSPropertyOp5
 70
     1
102
RTVSPropertyOp6
 70
     1
102
RTVSPropertyOp7
 70
     1
102
RTVSPropertyOp8
 70
     1
102
RTVSPropertyOp9
 70
     1
102
RTVSPropertyOp10
 70
     1
102
RTVSPropertyOp11
 70
     1
102
RTVSPropertyOp12
 70
     1
102
RTVSPropertyOp13
 70
     1
102
RTVSPropertyOp14
 70
     1
102
RTVSPropertyOp15
 70
     1
102
RTVSPropertyOp16
 70
     1
102
RTVSPropertyOp17
 70
     1
102
RTVSPropertyOp18
 70
     1
102
RTVSPropertyOp19
 70
     1
102
RTVSPropertyOp20
 70
     1
102
RTVSPropertyOp21
 70
     1
102
RTVSPropertyOp22
 70
     1
102
RTVSPropertyOp23
 70
     1
102
RTVSPropertyOp24
 70
     1
102
RTVSPropertyOp25
 70
     1
102
RTVSPropertyOp26
 70
     1
102
RTVSPropertyOp27
 70
     1
102
RTVSPropertyOp28
 70
     1
102
RTVSPropertyOp29
 70
     1
102
RTVSPropertyOp30
 70
     1
102
RTVSPropertyOp31
 70
     1
102
RTVSPropertyOp32
 70
     1
102
RTVSPropertyOp33
 70
     1
102
RTVSPropertyOp34
 70
     1
102
RTVSPropertyOp35
 70
     1
102
RTVSPropertyOp36
 70
     1
102
RTVSPropertyOp37
 70
     1
102
RTVSPropertyOp38
 70
     1
102
RTVSPropertyOp39
 70
     1
102
RTVSPropertyOp40
 70
     1
102
RTVSPropertyOp41
 70
     1
102
RTVSPropertyOp42
 70
     1
102
RTVSPropertyOp43
 70
     1
102
RTVSPropertyOp44
 70
     1
102
RTVSPropertyOp45
 70
     1
102
RTVSPropertyOp46
 70
     1
102
RTVSPropertyOp47
 70
     1
102
RTVSPropertyOp48
 70
     1
102
RTVSPropertyOp49
 70
     1
102
RTVSPropertyOp50
 70
     1
102
RTVSPropertyOp51
 70
     0
102
RTVSPropertyOp52
 70
     0
102
RTVSPropertyOp53
 70
     1
102
RTVSPropertyOp54
 70
     1
102
RTVSPropertyOp55
 70
     1
102
RTVSPropertyOp56
 70
     1
102
RTVSPropertyOp57
 70
     1
102
RTVSPost2010Prop28
280
     0
102
RTVSPost2010PropOp28
 70
     1
102
RTVSPost2010Prop29
280
     1
102
RTVSPost2010PropOp29
 70
     1
102
RTVSPost2010Prop30
280
     1
102
RTVSPost2010PropOp30
 70
     1
102
RTVSPost2010Prop31
280
     0
102
RTVSPost2010PropOp31
 70
     1
102
RTVSPost2010Prop32
280
     0
102
RTVSPost2010PropOp32
 70
     1
102
RTVSPost2010Prop33
280
     0
102
RTVSPost2010PropOp33
 70
     1
102
RTVSPost2010Prop34
280
     0
102
RTVSPost2010PropOp34
 70
     1
102
RTVSPost2010Prop35
280
     0
102
RTVSPost2010PropOp35
 70
     1
102
RTVSPost2010Prop36
280
     0
102
RTVSPost2010PropOp36
 70
     1
102
RTVSPost2010Prop37
 90
       50
102
RTVSPost2010PropOp37
 70
     1
102
RTVSPost2010Prop38
140
0.0
102
RTVSPost2010PropOp38
 70
     1
102
RTVSPost2010Prop39
140
1.0
102
RTVSPost2010PropOp39
 70
     1
102
RTVSPost2010Prop40
 90
        0
102
RTVSPost2010PropOp40
 70
     1
102
RTVSPost2010Prop41ColorIndex
 90
       18
102
RTVSPost2010Prop41ColorRGB
 90
        0
102
RTVSPost2010PropOp41
 70
     1
102
RTVSPost2010Prop42
 90
       50
102
RTVSPost2010PropOp42
 70
     1
102
RTVSPost2010Prop43
 90
        3
102
RTVSPost2010PropOp43
 70
     1
102
RTVSPost2010Prop44ColorIndex
 90
        5
102
RTVSPost2010Prop44ColorRGB
 90
      255
102
RTVSPost2010PropOp44
 70
     1
102
RTVSPost2010Prop45
280
     0
102
RTVSPost2010PropOp45
 70
     1
102
RTVSPost2010Prop46
 90
       50
102
RTVSPost2010PropOp46
 70
     1
102
RTVSPost2010Prop47
 90
       50
102
RTVSPost2010PropOp47
 70
     1
102
RTVSPost2010Prop48
 90
       50
102
RTVSPost2010PropOp48
 70
     1
102
RTVSPost2010Prop49
280
     0
102
RTVSPost2010PropOp49
 70
     1
102
RTVSPost2010Prop50
 90
       50
102
RTVSPost2010PropOp50
 70
     1
102
RTVSPost2010Prop51ColorIndex
 90
      256
102
RTVSPost2010Prop51ColorRGB
 90
-16777216
102
RTVSPost2010PropOp51
 70
     0
102
RTVSPost2010Prop52
140
1.0
102
RTVSPost2010PropOp52
 70
     0
102
RTVSPost2010Prop53
 90
        2
102
RTVSPost2010PropOp53
 70
     1
102
RTVSPost2010Prop54
  1
strokes_ogs.tif
102
RTVSPost2010PropOp54
 70
     1
102
RTVSPost2010Prop55
280
     0
102
RTVSPost2010PropOp55
 70
     1
102
RTVSPost2010Prop56
140
1.0
102
RTVSPost2010PropOp56
 70
     1
102
RTVSPost2010Prop57
140
1.0
102
RTVSPost2010PropOp57
 70
     1
  0
XRECORD
  5
32A
102
{ACAD_REACTORS
330
329
102
}
330
329
100
AcDbXrecord
280
     1
102
RTVSPropertyOp0
 70
     1
102
RTVSPropertyOp1
 70
     1
102
RTVSPropertyOp2
 70
     1
102
RTVSPropertyOp3
 70
     1
102
RTVSPropertyOp4
 70
     1
102
RTVSPropertyOp5
 70
     1
102
RTVSPropertyOp6
 70
     1
102
RTVSPropertyOp7
 70
     1
102
RTVSPropertyOp8
 70
     1
102
RTVSPropertyOp9
 70
     1
102
RTVSPropertyOp10
 70
     1
102
RTVSPropertyOp11
 70
     1
102
RTVSPropertyOp12
 70
     1
102
RTVSPropertyOp13
 70
     1
102
RTVSPropertyOp14
 70
     1
102
RTVSPropertyOp15
 70
     1
102
RTVSPropertyOp16
 70
     1
102
RTVSPropertyOp17
 70
     1
102
RTVSPropertyOp18
 70
     1
102
RTVSPropertyOp19
 70
     1
102
RTVSPropertyOp20
 70
     1
102
RTVSPropertyOp21
 70
     1
102
RTVSPropertyOp22
 70
     1
102
RTVSPropertyOp23
 70
     1
102
RTVSPropertyOp24
 70
     1
102
RTVSPropertyOp25
 70
     1
102
RTVSPropertyOp26
 70
     1
102
RTVSPropertyOp27
 70
     1
102
RTVSPropertyOp28
 70
     1
102
RTVSPropertyOp29
 70
     1
102
RTVSPropertyOp30
 70
     1
102
RTVSPropertyOp31
 70
     1
102
RTVSPropertyOp32
 70
     1
102
RTVSPropertyOp33
 70
     1
102
RTVSPropertyOp34
 70
     1
102
RTVSPropertyOp35
 70
     1
102
RTVSPropertyOp36
 70
     1
102
RTVSPropertyOp37
 70
     1
102
RTVSPropertyOp38
 70
     1
102
RTVSPropertyOp39
 70
     1
102
RTVSPropertyOp40
 70
     1
102
RTVSPropertyOp41
 70
     1
102
RTVSPropertyOp42
 70
     1
102
RTVSPropertyOp43
 70
     1
102
RTVSPropertyOp44
 70
     1
102
RTVSPropertyOp45
 70
     1
102
RTVSPropertyOp46
 70
     1
102
RTVSPropertyOp47
 70
     1
102
RTVSPropertyOp48
 70
     1
102
RTVSPropertyOp49
 70
     1
102
RTVSPropertyOp50
 70
     1
102
RTVSPropertyOp51
 70
     0
102
RTVSPropertyOp52
 70
     0
102
RTVSPropertyOp53
 70
     1
102
RTVSPropertyOp54
 70
     1
102
RTVSPropertyOp55
 70
     1
102
RTVSPropertyOp56
 70
     1
102
RTVSPropertyOp57
 70
     1
102
RTVSPost2010Prop28
280
     0
102
RTVSPost2010PropOp28
 70
     1
102
RTVSPost2010Prop29
280
     1
102
RTVSPost2010PropOp29
 70
     1
102
RTVSPost2010Prop30
280
     1
102
RTVSPost2010PropOp30
 70
     1
102
RTVSPost2010Prop31
280
     0
102
RTVSPost2010PropOp31
 70
     1
102
RTVSPost2010Prop32
280
     0
102
RTVSPost2010PropOp32
 70
     1
102
RTVSPost2010Prop33
280
     0
102
RTVSPost2010PropOp33
 70
     1
102
RTVSPost2010Prop34
280
     0
102
RTVSPost2010PropOp34
 70
     1
102
RTVSPost2010Prop35
280
     0
102
RTVSPost2010PropOp35
 70
     1
102
RTVSPost2010Prop36
280
     0
102
RTVSPost2010PropOp36
 70
     1
102
RTVSPost2010Prop37
 90
       50
102
RTVSPost2010PropOp37
 70
     1
102
RTVSPost2010Prop38
140
0.0
102
RTVSPost2010PropOp38
 70
     1
102
RTVSPost2010Prop39
140
1.0
102
RTVSPost2010PropOp39
 70
     1
102
RTVSPost2010Prop40
 90
        0
102
RTVSPost2010PropOp40
 70
     1
102
RTVSPost2010Prop41ColorIndex
 90
       18
102
RTVSPost2010Prop41ColorRGB
 90
        0
102
RTVSPost2010PropOp41
 70
     1
102
RTVSPost2010Prop42
 90
       50
102
RTVSPost2010PropOp42
 70
     1
102
RTVSPost2010Prop43
 90
        3
102
RTVSPost2010PropOp43
 70
     1
102
RTVSPost2010Prop44ColorIndex
 90
        5
102
RTVSPost2010Prop44ColorRGB
 90
      255
102
RTVSPost2010PropOp44
 70
     1
102
RTVSPost2010Prop45
280
     0
102
RTVSPost2010PropOp45
 70
     1
102
RTVSPost2010Prop46
 90
       50
102
RTVSPost2010PropOp46
 70
     1
102
RTVSPost2010Prop47
 90
       50
102
RTVSPost2010PropOp47
 70
     1
102
RTVSPost2010Prop48
 90
       50
102
RTVSPost2010PropOp48
 70
     1
102
RTVSPost2010Prop49
280
     0
102
RTVSPost2010PropOp49
 70
     1
102
RTVSPost2010Prop50
 90
       50
102
RTVSPost2010PropOp50
 70
     1
102
RTVSPost2010Prop51ColorIndex
 90
      256
102
RTVSPost2010Prop51ColorRGB
 90
-16777216
102
RTVSPost2010PropOp51
 70
     0
102
RTVSPost2010Prop52
140
1.0
102
RTVSPost2010PropOp52
 70
     0
102
RTVSPost2010Prop53
 90
        2
102
RTVSPost2010PropOp53
 70
     1
102
RTVSPost2010Prop54
  1
strokes_ogs.tif
102
RTVSPost2010PropOp54
 70
     1
102
RTVSPost2010Prop55
280
     0
102
RTVSPost2010PropOp55
 70
     1
102
RTVSPost2010Prop56
140
1.0
102
RTVSPost2010PropOp56
 70
     1
102
RTVSPost2010Prop57
140
1.0
102
RTVSPost2010PropOp57
 70
     1
  0
XRECORD
  5
32C
102
{ACAD_REACTORS
330
32B
102
}
330
32B
100
AcDbXrecord
280
     1
102
RTVSPropertyOp0
 70
     1
102
RTVSPropertyOp1
 70
     1
102
RTVSPropertyOp2
 70
     1
102
RTVSPropertyOp3
 70
     1
102
RTVSPropertyOp4
 70
     1
102
RTVSPropertyOp5
 70
     1
102
RTVSPropertyOp6
 70
     1
102
RTVSPropertyOp7
 70
     1
102
RTVSPropertyOp8
 70
     1
102
RTVSPropertyOp9
 70
     1
102
RTVSPropertyOp10
 70
     1
102
RTVSPropertyOp11
 70
     1
102
RTVSPropertyOp12
 70
     1
102
RTVSPropertyOp13
 70
     1
102
RTVSPropertyOp14
 70
     1
102
RTVSPropertyOp15
 70
     1
102
RTVSPropertyOp16
 70
     1
102
RTVSPropertyOp17
 70
     1
102
RTVSPropertyOp18
 70
     1
102
RTVSPropertyOp19
 70
     1
102
RTVSPropertyOp20
 70
     1
102
RTVSPropertyOp21
 70
     1
102
RTVSPropertyOp22
 70
     1
102
RTVSPropertyOp23
 70
     1
102
RTVSPropertyOp24
 70
     1
102
RTVSPropertyOp25
 70
     1
102
RTVSPropertyOp26
 70
     1
102
RTVSPropertyOp27
 70
     1
102
RTVSPropertyOp28
 70
     1
102
RTVSPropertyOp29
 70
     1
102
RTVSPropertyOp30
 70
     1
102
RTVSPropertyOp31
 70
     1
102
RTVSPropertyOp32
 70
     1
102
RTVSPropertyOp33
 70
     1
102
RTVSPropertyOp34
 70
     1
102
RTVSPropertyOp35
 70
     1
102
RTVSPropertyOp36
 70
     1
102
RTVSPropertyOp37
 70
     1
102
RTVSPropertyOp38
 70
     1
102
RTVSPropertyOp39
 70
     1
102
RTVSPropertyOp40
 70
     1
102
RTVSPropertyOp41
 70
     1
102
RTVSPropertyOp42
 70
     1
102
RTVSPropertyOp43
 70
     1
102
RTVSPropertyOp44
 70
     1
102
RTVSPropertyOp45
 70
     1
102
RTVSPropertyOp46
 70
     1
102
RTVSPropertyOp47
 70
     1
102
RTVSPropertyOp48
 70
     1
102
RTVSPropertyOp49
 70
     1
102
RTVSPropertyOp50
 70
     1
102
RTVSPropertyOp51
 70
     0
102
RTVSPropertyOp52
 70
     0
102
RTVSPropertyOp53
 70
     1
102
RTVSPropertyOp54
 70
     1
102
RTVSPropertyOp55
 70
     1
102
RTVSPropertyOp56
 70
     1
102
RTVSPropertyOp57
 70
     1
102
RTVSPost2010Prop28
280
     0
102
RTVSPost2010PropOp28
 70
     1
102
RTVSPost2010Prop29
280
     1
102
RTVSPost2010PropOp29
 70
     1
102
RTVSPost2010Prop30
280
     1
102
RTVSPost2010PropOp30
 70
     1
102
RTVSPost2010Prop31
280
     0
102
RTVSPost2010PropOp31
 70
     1
102
RTVSPost2010Prop32
280
     0
102
RTVSPost2010PropOp32
 70
     1
102
RTVSPost2010Prop33
280
     0
102
RTVSPost2010PropOp33
 70
     1
102
RTVSPost2010Prop34
280
     0
102
RTVSPost2010PropOp34
 70
     1
102
RTVSPost2010Prop35
280
     0
102
RTVSPost2010PropOp35
 70
     1
102
RTVSPost2010Prop36
280
     0
102
RTVSPost2010PropOp36
 70
     1
102
RTVSPost2010Prop37
 90
       50
102
RTVSPost2010PropOp37
 70
     1
102
RTVSPost2010Prop38
140
0.0
102
RTVSPost2010PropOp38
 70
     1
102
RTVSPost2010Prop39
140
1.0
102
RTVSPost2010PropOp39
 70
     1
102
RTVSPost2010Prop40
 90
        0
102
RTVSPost2010PropOp40
 70
     1
102
RTVSPost2010Prop41ColorIndex
 90
       18
102
RTVSPost2010Prop41ColorRGB
 90
        0
102
RTVSPost2010PropOp41
 70
     1
102
RTVSPost2010Prop42
 90
       50
102
RTVSPost2010PropOp42
 70
     1
102
RTVSPost2010Prop43
 90
        3
102
RTVSPost2010PropOp43
 70
     1
102
RTVSPost2010Prop44ColorIndex
 90
        5
102
RTVSPost2010Prop44ColorRGB
 90
      255
102
RTVSPost2010PropOp44
 70
     1
102
RTVSPost2010Prop45
280
     0
102
RTVSPost2010PropOp45
 70
     1
102
RTVSPost2010Prop46
 90
       50
102
RTVSPost2010PropOp46
 70
     1
102
RTVSPost2010Prop47
 90
       50
102
RTVSPost2010PropOp47
 70
     1
102
RTVSPost2010Prop48
 90
       50
102
RTVSPost2010PropOp48
 70
     1
102
RTVSPost2010Prop49
280
     0
102
RTVSPost2010PropOp49
 70
     1
102
RTVSPost2010Prop50
 90
       50
102
RTVSPost2010PropOp50
 70
     1
102
RTVSPost2010Prop51ColorIndex
 90
      256
102
RTVSPost2010Prop51ColorRGB
 90
-16777216
102
RTVSPost2010PropOp51
 70
     0
102
RTVSPost2010Prop52
140
1.0
102
RTVSPost2010PropOp52
 70
     0
102
RTVSPost2010Prop53
 90
        2
102
RTVSPost2010PropOp53
 70
     1
102
RTVSPost2010Prop54
  1
strokes_ogs.tif
102
RTVSPost2010PropOp54
 70
     1
102
RTVSPost2010Prop55
280
     0
102
RTVSPost2010PropOp55
 70
     1
102
RTVSPost2010Prop56
140
1.0
102
RTVSPost2010PropOp56
 70
     1
102
RTVSPost2010Prop57
140
1.0
102
RTVSPost2010PropOp57
 70
     1
  0
XRECORD
  5
31C
102
{ACAD_REACTORS
330
31B
102
}
330
31B
100
AcDbXrecord
280
     1
102
RTVSPropertyOp0
 70
     1
102
RTVSPropertyOp1
 70
     1
102
RTVSPropertyOp2
 70
     1
102
RTVSPropertyOp3
 70
     1
102
RTVSPropertyOp4
 70
     1
102
RTVSPropertyOp5
 70
     1
102
RTVSPropertyOp6
 70
     1
102
RTVSPropertyOp7
 70
     1
102
RTVSPropertyOp8
 70
     1
102
RTVSPropertyOp9
 70
     1
102
RTVSPropertyOp10
 70
     1
102
RTVSPropertyOp11
 70
     1
102
RTVSPropertyOp12
 70
     1
102
RTVSPropertyOp13
 70
     1
102
RTVSPropertyOp14
 70
     1
102
RTVSPropertyOp15
 70
     1
102
RTVSPropertyOp16
 70
     1
102
RTVSPropertyOp17
 70
     1
102
RTVSPropertyOp18
 70
     1
102
RTVSPropertyOp19
 70
     1
102
RTVSPropertyOp20
 70
     1
102
RTVSPropertyOp21
 70
     1
102
RTVSPropertyOp22
 70
     1
102
RTVSPropertyOp23
 70
     1
102
RTVSPropertyOp24
 70
     1
102
RTVSPropertyOp25
 70
     1
102
RTVSPropertyOp26
 70
     1
102
RTVSPropertyOp27
 70
     1
102
RTVSPropertyOp28
 70
     1
102
RTVSPropertyOp29
 70
     1
102
RTVSPropertyOp30
 70
     1
102
RTVSPropertyOp31
 70
     1
102
RTVSPropertyOp32
 70
     1
102
RTVSPropertyOp33
 70
     1
102
RTVSPropertyOp34
 70
     1
102
RTVSPropertyOp35
 70
     1
102
RTVSPropertyOp36
 70
     1
102
RTVSPropertyOp37
 70
     1
102
RTVSPropertyOp38
 70
     1
102
RTVSPropertyOp39
 70
     1
102
RTVSPropertyOp40
 70
     1
102
RTVSPropertyOp41
 70
     1
102
RTVSPropertyOp42
 70
     1
102
RTVSPropertyOp43
 70
     1
102
RTVSPropertyOp44
 70
     1
102
RTVSPropertyOp45
 70
     1
102
RTVSPropertyOp46
 70
     1
102
RTVSPropertyOp47
 70
     1
102
RTVSPropertyOp48
 70
     1
102
RTVSPropertyOp49
 70
     1
102
RTVSPropertyOp50
 70
     1
102
RTVSPropertyOp51
 70
     0
102
RTVSPropertyOp52
 70
     0
102
RTVSPropertyOp53
 70
     1
102
RTVSPropertyOp54
 70
     1
102
RTVSPropertyOp55
 70
     1
102
RTVSPropertyOp56
 70
     1
102
RTVSPropertyOp57
 70
     1
102
RTVSPost2010Prop28
280
     0
102
RTVSPost2010PropOp28
 70
     1
102
RTVSPost2010Prop29
280
     1
102
RTVSPost2010PropOp29
 70
     1
102
RTVSPost2010Prop30
280
     1
102
RTVSPost2010PropOp30
 70
     1
102
RTVSPost2010Prop31
280
     0
102
RTVSPost2010PropOp31
 70
     1
102
RTVSPost2010Prop32
280
     0
102
RTVSPost2010PropOp32
 70
     1
102
RTVSPost2010Prop33
280
     0
102
RTVSPost2010PropOp33
 70
     1
102
RTVSPost2010Prop34
280
     0
102
RTVSPost2010PropOp34
 70
     1
102
RTVSPost2010Prop35
280
     0
102
RTVSPost2010PropOp35
 70
     1
102
RTVSPost2010Prop36
280
     0
102
RTVSPost2010PropOp36
 70
     1
102
RTVSPost2010Prop37
 90
       50
102
RTVSPost2010PropOp37
 70
     1
102
RTVSPost2010Prop38
140
0.0
102
RTVSPost2010PropOp38
 70
     1
102
RTVSPost2010Prop39
140
1.0
102
RTVSPost2010PropOp39
 70
     1
102
RTVSPost2010Prop40
 90
        0
102
RTVSPost2010PropOp40
 70
     1
102
RTVSPost2010Prop41ColorIndex
 90
       18
102
RTVSPost2010Prop41ColorRGB
 90
        0
102
RTVSPost2010PropOp41
 70
     1
102
RTVSPost2010Prop42
 90
       50
102
RTVSPost2010PropOp42
 70
     1
102
RTVSPost2010Prop43
 90
        3
102
RTVSPost2010PropOp43
 70
     1
102
RTVSPost2010Prop44ColorIndex
 90
        5
102
RTVSPost2010Prop44ColorRGB
 90
      255
102
RTVSPost2010PropOp44
 70
     1
102
RTVSPost2010Prop45
280
     0
102
RTVSPost2010PropOp45
 70
     1
102
RTVSPost2010Prop46
 90
       50
102
RTVSPost2010PropOp46
 70
     1
102
RTVSPost2010Prop47
 90
       50
102
RTVSPost2010PropOp47
 70
     1
102
RTVSPost2010Prop48
 90
       50
102
RTVSPost2010PropOp48
 70
     1
102
RTVSPost2010Prop49
280
     0
102
RTVSPost2010PropOp49
 70
     1
102
RTVSPost2010Prop50
 90
       50
102
RTVSPost2010PropOp50
 70
     1
102
RTVSPost2010Prop51ColorIndex
 90
      256
102
RTVSPost2010Prop51ColorRGB
 90
-16777216
102
RTVSPost2010PropOp51
 70
     0
102
RTVSPost2010Prop52
140
1.0
102
RTVSPost2010PropOp52
 70
     0
102
RTVSPost2010Prop53
 90
        2
102
RTVSPost2010PropOp53
 70
     1
102
RTVSPost2010Prop54
  1
strokes_ogs.tif
102
RTVSPost2010PropOp54
 70
     1
102
RTVSPost2010Prop55
280
     0
102
RTVSPost2010PropOp55
 70
     1
102
RTVSPost2010Prop56
140
1.0
102
RTVSPost2010PropOp56
 70
     1
102
RTVSPost2010Prop57
140
1.0
102
RTVSPost2010PropOp57
 70
     1
  0
XRECORD
  5
30E
102
{ACAD_REACTORS
330
30D
102
}
330
30D
100
AcDbXrecord
280
     1
102
RTVSPropertyOp0
 70
     1
102
RTVSPropertyOp1
 70
     1
102
RTVSPropertyOp2
 70
     1
102
RTVSPropertyOp3
 70
     1
102
RTVSPropertyOp4
 70
     1
102
RTVSPropertyOp5
 70
     1
102
RTVSPropertyOp6
 70
     1
102
RTVSPropertyOp7
 70
     1
102
RTVSPropertyOp8
 70
     1
102
RTVSPropertyOp9
 70
     1
102
RTVSPropertyOp10
 70
     1
102
RTVSPropertyOp11
 70
     1
102
RTVSPropertyOp12
 70
     1
102
RTVSPropertyOp13
 70
     1
102
RTVSPropertyOp14
 70
     1
102
RTVSPropertyOp15
 70
     1
102
RTVSPropertyOp16
 70
     1
102
RTVSPropertyOp17
 70
     1
102
RTVSPropertyOp18
 70
     1
102
RTVSPropertyOp19
 70
     1
102
RTVSPropertyOp20
 70
     1
102
RTVSPropertyOp21
 70
     1
102
RTVSPropertyOp22
 70
     1
102
RTVSPropertyOp23
 70
     1
102
RTVSPropertyOp24
 70
     1
102
RTVSPropertyOp25
 70
     1
102
RTVSPropertyOp26
 70
     1
102
RTVSPropertyOp27
 70
     1
102
RTVSPropertyOp28
 70
     1
102
RTVSPropertyOp29
 70
     1
102
RTVSPropertyOp30
 70
     1
102
RTVSPropertyOp31
 70
     1
102
RTVSPropertyOp32
 70
     1
102
RTVSPropertyOp33
 70
     1
102
RTVSPropertyOp34
 70
     1
102
RTVSPropertyOp35
 70
     1
102
RTVSPropertyOp36
 70
     1
102
RTVSPropertyOp37
 70
     1
102
RTVSPropertyOp38
 70
     1
102
RTVSPropertyOp39
 70
     1
102
RTVSPropertyOp40
 70
     1
102
RTVSPropertyOp41
 70
     1
102
RTVSPropertyOp42
 70
     1
102
RTVSPropertyOp43
 70
     1
102
RTVSPropertyOp44
 70
     1
102
RTVSPropertyOp45
 70
     1
102
RTVSPropertyOp46
 70
     1
102
RTVSPropertyOp47
 70
     1
102
RTVSPropertyOp48
 70
     1
102
RTVSPropertyOp49
 70
     1
102
RTVSPropertyOp50
 70
     1
102
RTVSPropertyOp51
 70
     0
102
RTVSPropertyOp52
 70
     0
102
RTVSPropertyOp53
 70
     1
102
RTVSPropertyOp54
 70
     1
102
RTVSPropertyOp55
 70
     1
102
RTVSPropertyOp56
 70
     1
102
RTVSPropertyOp57
 70
     1
102
RTVSPost2010Prop28
280
     0
102
RTVSPost2010PropOp28
 70
     1
102
RTVSPost2010Prop29
280
     1
102
RTVSPost2010PropOp29
 70
     1
102
RTVSPost2010Prop30
280
     1
102
RTVSPost2010PropOp30
 70
     1
102
RTVSPost2010Prop31
280
     0
102
RTVSPost2010PropOp31
 70
     1
102
RTVSPost2010Prop32
280
     0
102
RTVSPost2010PropOp32
 70
     1
102
RTVSPost2010Prop33
280
     0
102
RTVSPost2010PropOp33
 70
     1
102
RTVSPost2010Prop34
280
     0
102
RTVSPost2010PropOp34
 70
     1
102
RTVSPost2010Prop35
280
     0
102
RTVSPost2010PropOp35
 70
     1
102
RTVSPost2010Prop36
280
     0
102
RTVSPost2010PropOp36
 70
     1
102
RTVSPost2010Prop37
 90
       50
102
RTVSPost2010PropOp37
 70
     1
102
RTVSPost2010Prop38
140
0.0
102
RTVSPost2010PropOp38
 70
     1
102
RTVSPost2010Prop39
140
1.0
102
RTVSPost2010PropOp39
 70
     1
102
RTVSPost2010Prop40
 90
        0
102
RTVSPost2010PropOp40
 70
     1
102
RTVSPost2010Prop41ColorIndex
 90
       18
102
RTVSPost2010Prop41ColorRGB
 90
        0
102
RTVSPost2010PropOp41
 70
     1
102
RTVSPost2010Prop42
 90
       50
102
RTVSPost2010PropOp42
 70
     1
102
RTVSPost2010Prop43
 90
        3
102
RTVSPost2010PropOp43
 70
     1
102
RTVSPost2010Prop44ColorIndex
 90
        5
102
RTVSPost2010Prop44ColorRGB
 90
      255
102
RTVSPost2010PropOp44
 70
     1
102
RTVSPost2010Prop45
280
     0
102
RTVSPost2010PropOp45
 70
     1
102
RTVSPost2010Prop46
 90
       50
102
RTVSPost2010PropOp46
 70
     1
102
RTVSPost2010Prop47
 90
       50
102
RTVSPost2010PropOp47
 70
     1
102
RTVSPost2010Prop48
 90
       50
102
RTVSPost2010PropOp48
 70
     1
102
RTVSPost2010Prop49
280
     0
102
RTVSPost2010PropOp49
 70
     1
102
RTVSPost2010Prop50
 90
       50
102
RTVSPost2010PropOp50
 70
     1
102
RTVSPost2010Prop51ColorIndex
 90
      256
102
RTVSPost2010Prop51ColorRGB
 90
-16777216
102
RTVSPost2010PropOp51
 70
     0
102
RTVSPost2010Prop52
140
1.0
102
RTVSPost2010PropOp52
 70
     0
102
RTVSPost2010Prop53
 90
        2
102
RTVSPost2010PropOp53
 70
     1
102
RTVSPost2010Prop54
  1
strokes_ogs.tif
102
RTVSPost2010PropOp54
 70
     1
102
RTVSPost2010Prop55
280
     0
102
RTVSPost2010PropOp55
 70
     1
102
RTVSPost2010Prop56
140
1.0
102
RTVSPost2010PropOp56
 70
     1
102
RTVSPost2010Prop57
140
1.0
102
RTVSPost2010PropOp57
 70
     1
  0
XRECORD
  5
32E
102
{ACAD_REACTORS
330
32D
102
}
330
32D
100
AcDbXrecord
280
     1
102
RTVSPropertyOp0
 70
     1
102
RTVSPropertyOp1
 70
     1
102
RTVSPropertyOp2
 70
     1
102
RTVSPropertyOp3
 70
     1
102
RTVSPropertyOp4
 70
     1
102
RTVSPropertyOp5
 70
     1
102
RTVSPropertyOp6
 70
     1
102
RTVSPropertyOp7
 70
     1
102
RTVSPropertyOp8
 70
     1
102
RTVSPropertyOp9
 70
     1
102
RTVSPropertyOp10
 70
     1
102
RTVSPropertyOp11
 70
     1
102
RTVSPropertyOp12
 70
     1
102
RTVSPropertyOp13
 70
     1
102
RTVSPropertyOp14
 70
     1
102
RTVSPropertyOp15
 70
     1
102
RTVSPropertyOp16
 70
     1
102
RTVSPropertyOp17
 70
     1
102
RTVSPropertyOp18
 70
     1
102
RTVSPropertyOp19
 70
     1
102
RTVSPropertyOp20
 70
     1
102
RTVSPropertyOp21
 70
     1
102
RTVSPropertyOp22
 70
     1
102
RTVSPropertyOp23
 70
     1
102
RTVSPropertyOp24
 70
     1
102
RTVSPropertyOp25
 70
     1
102
RTVSPropertyOp26
 70
     1
102
RTVSPropertyOp27
 70
     1
102
RTVSPropertyOp28
 70
     1
102
RTVSPropertyOp29
 70
     1
102
RTVSPropertyOp30
 70
     1
102
RTVSPropertyOp31
 70
     1
102
RTVSPropertyOp32
 70
     1
102
RTVSPropertyOp33
 70
     1
102
RTVSPropertyOp34
 70
     1
102
RTVSPropertyOp35
 70
     1
102
RTVSPropertyOp36
 70
     1
102
RTVSPropertyOp37
 70
     1
102
RTVSPropertyOp38
 70
     1
102
RTVSPropertyOp39
 70
     1
102
RTVSPropertyOp40
 70
     1
102
RTVSPropertyOp41
 70
     1
102
RTVSPropertyOp42
 70
     1
102
RTVSPropertyOp43
 70
     1
102
RTVSPropertyOp44
 70
     1
102
RTVSPropertyOp45
 70
     1
102
RTVSPropertyOp46
 70
     1
102
RTVSPropertyOp47
 70
     1
102
RTVSPropertyOp48
 70
     1
102
RTVSPropertyOp49
 70
     1
102
RTVSPropertyOp50
 70
     1
102
RTVSPropertyOp51
 70
     0
102
RTVSPropertyOp52
 70
     0
102
RTVSPropertyOp53
 70
     1
102
RTVSPropertyOp54
 70
     1
102
RTVSPropertyOp55
 70
     1
102
RTVSPropertyOp56
 70
     1
102
RTVSPropertyOp57
 70
     1
102
RTVSPost2010Prop28
280
     0
102
RTVSPost2010PropOp28
 70
     1
102
RTVSPost2010Prop29
280
     1
102
RTVSPost2010PropOp29
 70
     1
102
RTVSPost2010Prop30
280
     1
102
RTVSPost2010PropOp30
 70
     1
102
RTVSPost2010Prop31
280
     0
102
RTVSPost2010PropOp31
 70
     1
102
RTVSPost2010Prop32
280
     0
102
RTVSPost2010PropOp32
 70
     1
102
RTVSPost2010Prop33
280
     0
102
RTVSPost2010PropOp33
 70
     1
102
RTVSPost2010Prop34
280
     0
102
RTVSPost2010PropOp34
 70
     1
102
RTVSPost2010Prop35
280
     0
102
RTVSPost2010PropOp35
 70
     1
102
RTVSPost2010Prop36
280
     0
102
RTVSPost2010PropOp36
 70
     1
102
RTVSPost2010Prop37
 90
       50
102
RTVSPost2010PropOp37
 70
     1
102
RTVSPost2010Prop38
140
0.0
102
RTVSPost2010PropOp38
 70
     1
102
RTVSPost2010Prop39
140
1.0
102
RTVSPost2010PropOp39
 70
     1
102
RTVSPost2010Prop40
 90
        0
102
RTVSPost2010PropOp40
 70
     1
102
RTVSPost2010Prop41ColorIndex
 90
       18
102
RTVSPost2010Prop41ColorRGB
 90
        0
102
RTVSPost2010PropOp41
 70
     1
102
RTVSPost2010Prop42
 90
       50
102
RTVSPost2010PropOp42
 70
     1
102
RTVSPost2010Prop43
 90
        3
102
RTVSPost2010PropOp43
 70
     1
102
RTVSPost2010Prop44ColorIndex
 90
        5
102
RTVSPost2010Prop44ColorRGB
 90
      255
102
RTVSPost2010PropOp44
 70
     1
102
RTVSPost2010Prop45
280
     0
102
RTVSPost2010PropOp45
 70
     1
102
RTVSPost2010Prop46
 90
       50
102
RTVSPost2010PropOp46
 70
     1
102
RTVSPost2010Prop47
 90
       50
102
RTVSPost2010PropOp47
 70
     1
102
RTVSPost2010Prop48
 90
       50
102
RTVSPost2010PropOp48
 70
     1
102
RTVSPost2010Prop49
280
     0
102
RTVSPost2010PropOp49
 70
     1
102
RTVSPost2010Prop50
 90
       50
102
RTVSPost2010PropOp50
 70
     1
102
RTVSPost2010Prop51ColorIndex
 90
      256
102
RTVSPost2010Prop51ColorRGB
 90
-16777216
102
RTVSPost2010PropOp51
 70
     0
102
RTVSPost2010Prop52
140
1.0
102
RTVSPost2010PropOp52
 70
     0
102
RTVSPost2010Prop53
 90
        2
102
RTVSPost2010PropOp53
 70
     1
102
RTVSPost2010Prop54
  1
strokes_ogs.tif
102
RTVSPost2010PropOp54
 70
     1
102
RTVSPost2010Prop55
280
     0
102
RTVSPost2010PropOp55
 70
     1
102
RTVSPost2010Prop56
140
1.0
102
RTVSPost2010PropOp56
 70
     1
102
RTVSPost2010Prop57
140
1.0
102
RTVSPost2010PropOp57
 70
     1
  0
ENDSEC
  0
EOF
